Завантажити та скачати торренти українською


План гри / The Game Plan (2007) Ukr/Eng | Sub Ukr

Нові коментарі

Нова тема   Відповісти
Автор Повідомлення
Тирік 
VIP


З нами з: 06.04.09
Востаннє: 17.09.13
Повідомлень: 909

2011-02-08 02:32  
План гри / The Game Plan (2007) Ukr/Eng | Sub Ukr


Жанр: Комедія, семейний, спорт
Країна: США



Кіностудія / кінокомпанія: Auburn, Massachusetts, USA
Режисер: Енді Фікмен (Andy Fickman)
Актори: Двейн "Скеля" Джонсон (Dwayne Johnson), Медісон Петтіс (Madison Pettis), Кіра Седжвік (Kyra Sedgwick), Розелін Санчез (Roselyn Sanchez), Морріс Честнат (Morris Chestnut), Хейес МакАртур (Hayes MacArthur), Брайан Дж. Уайт (Brian J. White), Джамал Дафф (Jamal Duff), Пейдж Турко (Paige Turco), Таббс (Tubbs)

Сюжет:
Професійний гравець у американський футбол раптово дізнається про існування своєї дочки. Дочка, яка з'явилася нізвідки, допомагає спортсмену перекваліфікуватися з справжнього холостяка у зразково-показового татуся.

Тривалість: 01:50:15
Якість:
Відео:
кодек:
розмір кадру: 720x304
бітрейт: 1995 Kб/с

Аудіо 1:
мова: українська
переклад: багатоголосий закадровий "Так Треба Продакшин" на замовлення
кодек: АC3 5.1
бітрейт: 448 Кбіт/сек

Аудіо 2:
мова: англійська
переклад: оригінал
кодек: АC3 5.1
бітрейт: 448 Кбіт/сек

Субтитри:
мова: українська
тип: програмні (м'які)
формат: *.sub

MediaINFO

Format : AVI
Format/Info : Audio Video Interleave
Format profile : OpenDML
File size : 2.23 GiB
Duration : 1h 50mn
Overall bit rate : 2 898 Kbps
Movie name : Ïëàí èãðû / The Game Plan (2007)
Director : xxL
Writing application : VirtualDubMod 1.5.10.2 (build 2540/release)
Writing library : VirtualDubMod build 2540/release
Copyright : http://forum.hqclub.net/
Comment : 25.09.2010
Video #0
ID : 0
Format : MPEG-4 Visual
Format profile : [email protected]
Format settings, BVOP : Yes
Format settings, QPel : No
Format settings, GMC : No warppoints
Format settings, Matrix : Custom
Codec ID :
Codec ID/Hint :
Duration : 1h 50mn
Bit rate : 1 984 Kbps
Width : 720 pixels
Height : 304 pixels
Display aspect ratio : 2.35:1
Frame rate : 23.976 fps
Resolution : 24 bits
Colorimetry : 4:2:0
Scan type : Progressive
Bits/(Pixel*Frame) : 0.378
Stream size : 1.53 GiB (68%)
Writing library : 1.2.1 (UTC 2008-12-04)
Audio #1
ID : 1
Format : AC-3
Format/Info : Audio Coding 3
Codec ID : 2000
Duration : 1h 50mn
Bit rate mode : Constant
Bit rate : 448 Kbps
Channel(s) : 6 channels
Channel positions : Front: L C R, Surround: L R, LFE
Sampling rate : 48.0 KHz
Stream size : 353 MiB (15%)
Alignment : Split accross interleaves
Interleave, duration : 42 ms (1.00 video frame)
Interleave, preload duration : 500 ms
Title : Ukrainian[ukr/uk]
Audio #2
ID : 2
Format : AC-3
Format/Info : Audio Coding 3
Codec ID : 2000
Duration : 1h 50mn
Bit rate mode : Constant
Bit rate : 448 Kbps
Channel(s) : 6 channels
Channel positions : Front: L C R, Surround: L R, LFE
Sampling rate : 48.0 KHz
Stream size : 353 MiB (15%)
Alignment : Split accross interleaves
Interleave, duration : 42 ms (1.00 video frame)
Interleave, preload duration : 500 ms
Title : English[eng/en]

ScreenSHOT











Особлива подяка пану karvai0 за оперативно надану звукову доріжку. Також дякую пану Hulk1987, у якого було взято відеоріп та українські субтитри. За роботу над субтитрами окрема подяка kislukу та w2958l.

Джерело: & -----> План гри / The Game Plan (2007) Eng | sub Ukr


 Трекер:    Зареєстрований   

Завантажити / скачати фільм українською



відео для новачків



 Зареєстрований:   2011-02-08 09:25
 Розмір:   2.23 GB 
 Оцінка фільму:   9.6/10 (Голосів: 48)
   
Vetal-XL 
VIP


З нами з: 31.03.10
Востаннє: 10.12.16
Повідомлень: 837

2011-02-08 15:34  
Дякую за цей фільм українською, дуже довго чекавHappy
cjamon 
Частий відвідувач


З нами з: 10.03.09
Востаннє: 09.12.16
Повідомлень: 32

2011-02-08 21:53  
ДОРІЖКУ ОКРЕМО, БУДЬТЕ ЛАСКАВІ! =)

Додано через 2 хвилини 23 секунди:

нЕзвідки ???

виправте в описі!

Тирік 
VIP


З нами з: 06.04.09
Востаннє: 17.09.13
Повідомлень: 909

2011-02-08 22:51  
cjamon написано:
виправте в описі!

Дякую, виправив. Доріжка буде, тільки завтра.

П.С. sergij - чітер!

bandera77 
VIP


З нами з: 14.03.09
Востаннє: 09.12.16
Повідомлень: 266

2011-02-09 14:37  
гарний фільм. приємний. ДЯкую!
Тирік 
VIP


З нами з: 06.04.09
Востаннє: 17.09.13
Повідомлень: 909

2011-02-09 15:22  
Xshot 
VIP


З нами з: 22.09.09
Востаннє: 27.11.16
Повідомлень: 1535

2013-08-28 04:59  
Ще один постер

Ваш часовий пояс: GMT + 2 Години

Нова тема   Відповісти