Завантажити та скачати торренти українською


Коп і Штик (2006)

Нові коментарі

Нова тема   Відповісти
Автор Повідомлення
Тирік 
VIP


З нами з: 06.04.09
Востаннє: 17.09.13
Повідомлень: 909

2011-02-04 15:31  
Коп і Штик (2006)


Жанр: анімація
Країна: Україна
Кіностудія / кінокомпанія: Укранімафільм
Режисер: Борис Волков
Ролі озвучують: А. Зіновенко, Т. Зіновенко, О. Трубецька

Сюжет:
Два кроти з іменами Коп та Штик можуть стати героями першого українського мультсеріалу. Першу його серію створили на студії "Укранімафільм".

Тривалість: 00:10:32
Якість:
Відео:
кодек:
розмір кадру: 720 x 536
бітрейт: 1 592 Kб/с
Аудіо:
мова: українська
переклад: оригінал
кодек: АС-3 2.0
бітрейт: 224 Кбіт/сек

MediaINFO

Format : AVI
Format/Info : Audio Video Interleave
File size : 138 MiB
Duration : 10mn 32s
Overall bit rate : 1 826 Kbps
Writing application : VirtualDubMod 1.5.10.2 (build 2540/release)
Writing library : VirtualDubMod build 2540/release
Video #0
ID : 0
Format : MPEG-4 Visual
Format profile : [email protected]
Format settings, BVOP : Yes
Format settings, QPel : Yes
Format settings, GMC : 3 warppoints
Format settings, Matrix : Default (H.263)
Codec ID :
Codec ID/Hint :
Duration : 10mn 32s
Bit rate : 1 592 Kbps
Width : 720 pixels
Height : 536 pixels
Display aspect ratio : 4:3
Frame rate : 25.000 fps
Resolution : 24 bits
Colorimetry : 4:2:0
Scan type : Progressive
Bits/(Pixel*Frame) : 0.165
Stream size : 120 MiB (87%)
Writing library : 1.2.1 (UTC 2008-12-04)
Audio #1
ID : 1
Format : AC-3
Format/Info : Audio Coding 3
Codec ID : 2000
Duration : 10mn 32s
Bit rate mode : Constant
Bit rate : 224 Kbps
Channel(s) : 2 channels
Channel positions : L R
Sampling rate : 48.0 KHz
Stream size : 16.9 MiB (12%)
Alignment : Aligned on interleaves
Interleave, duration : 40 ms (1.00 video frame)
Interleave, preload duration : 512 ms
ScreenSHOT







Джерело: &
Українські мультфільми (Збірка 7)

Якщо Ви справді бажаєте підтримати українське - після перегляду, якщо мультфільм вам сподобався, придбайте ліцензійний диск.
Підтримаймо вітчизняних аніматорів і видавців!
Замовити диск можна ТУТ!


Золотий реліз (завантажене не впливає на рейтинг)
 Трекер:    Зареєстрований   

Завантажити / скачати український мультфільм



відео для новачків



 Зареєстрований:   2011-02-04 15:31
 Розмір:   138 MB 
 Оцінка мультфільму:   9.8/10 (Голосів: 37)
   
Infernal_flower 
Новенький


З нами з: 02.02.10
Востаннє: 18.01.16
Повідомлень: 10

2014-08-18 20:52  
Додайте будь ласка вікову адресацію цього мультфільма!
Трирічні діти б'ються в істериках і залазять під дивани.

Ваш часовий пояс: GMT + 2 Години

Нова тема   Відповісти