Завантажити та скачати торренти українською


Братик Кролик та Братик Лис (1972)

Нові коментарі

Нова тема   Відповісти
Автор Повідомлення
Тирік 
VIP


З нами з: 06.04.09
Востаннє: 17.09.13
Повідомлень: 909

2011-02-02 18:09  
Братик Кролик та Братик Лис (1972)


Жанр: анімація, казка
Країна: Україна
Кіностудія / кінокомпанія: Укранімафільм
Режисер: І. Мазепа
Автори сценарію: В. Капустян
Художник-постановщик: І. Правдіна
Композитор: Я. Цегляр
Озвучили: Н. Трофімов, Я. Козлов, В. Деркач.

Сюжет:
Похвалився якось Братик Кролик що розумніший за Братика Лиса. От Лис і вирішив провчити нахабу.

Тривалість: 00:09:24
Якість:
Відео:
кодек:
розмір кадру: 720 x 536
бітрейт: 1 751 Kб/с
Аудіо:
мова: українська
переклад: оригінал
кодек: АС-3 2.0
бітрейт: 192 Кбіт/сек

MediaINFO

Format : AVI
Format/Info : Audio Video Interleave
File size : 132 MiB
Duration : 9mn 24s
Overall bit rate : 1 963 Kbps
Writing application : VirtualDubMod 1.5.10.2 (build 2540/release)
Writing library : VirtualDubMod build 2540/release
Video #0
ID : 0
Format : MPEG-4 Visual
Format profile : [email protected]
Format settings, BVOP : Yes
Format settings, QPel : Yes
Format settings, GMC : 3 warppoints
Format settings, Matrix : Default (H.263)
Codec ID :
Codec ID/Hint :
Duration : 9mn 24s
Bit rate : 1 761 Kbps
Width : 720 pixels
Height : 536 pixels
Display aspect ratio : 4:3
Frame rate : 25.000 fps
Resolution : 24 bits
Colorimetry : 4:2:0
Scan type : Progressive
Bits/(Pixel*Frame) : 0.183
Stream size : 119 MiB (90%)
Writing library : 1.2.0.dev47 (UTC 2006-11-01)
Audio #1
ID : 1
Format : AC-3
Format/Info : Audio Coding 3
Codec ID : 2000
Duration : 9mn 24s
Bit rate mode : Constant
Bit rate : 192 Kbps
Channel(s) : 2 channels
Channel positions : L R
Sampling rate : 48.0 KHz
Stream size : 12.9 MiB (10%)
Alignment : Split accross interleaves
Interleave, duration : 40 ms (1.00 video frame)
Interleave, preload duration : 500 ms
Title : Ukrainian[ukr/uk]
ScreenSHOT








Джерело: &
Українські мультфільми (Збірка 7)

Якщо Ви справді бажаєте підтримати українське - після перегляду, якщо мультфільм вам сподобався, придбайте ліцензійний диск.
Підтримаймо вітчизняних аніматорів і видавців!
Замовити диск можна ТУТ!


Золотий реліз (завантажене не впливає на рейтинг)
 Трекер:    Зареєстрований   

Завантажити / скачати український мультфільм



відео для новачків



 Зареєстрований:   2011-02-02 18:09
 Розмір:   132 MB 
 Оцінка мультфільму:   9.9/10 (Голосів: 31)
   
Tarasyk 
Відео Гуртом - фільмокрай
Відео Гуртом - фільмокрай


З нами з: 26.08.09
Востаннє: 28.11.16
Повідомлень: 5972

2011-02-02 18:23  
Тирік, два зауваження - по-перше, сильніше обрізай чорні смуги, і по-друге, вистав бітрейт близько 2000.
А, ну і третє зауваження - дивись, коли обрізаєш чорні смуги по боках, то в тебе вже замість 720 реально стає менше пікселів у ширину, тому найкраще робити 704х... або навіть 688х... якщо обрізаєш більше 30 пікселів, бо виходить, що ти сильно розтягуєш зображення. І висоту старайся робити кратною 16 - 512 (якщо 688), 528 або 544 (якщо 704), щоб читалося на побутових DVD-плеєрах.

Вибачай за критику, просто хочу, щоб було якнайкраще Wink (1) . Сам багато експериментував і пробував...

Додано через 1 хвилину 16 секунд:

І бітрейт аудіо роби 224 - здається саме такий він на дисках. Не варто його зменшувати

Тирік 
VIP


З нами з: 06.04.09
Востаннє: 17.09.13
Повідомлень: 909

2011-02-02 18:31  
Тарасик, зараз не маю часу, у мене завал на роботі....
П.С. Так обрізає прога і бітрейт так само. А за критику дякую Happy

Додано через 20 секунд:

на дисках МР1 та тут АС3!

Ваш часовий пояс: GMT + 2 Години

Нова тема   Відповісти