Завантажити та скачати торренти українською


Ірина Федишин - Україна колядує (2007) [APE] | Pop

Нові коментарі

Нова тема   Відповісти
Автор Повідомлення
realnitro 
Відео Гуртом - дизайнер
Відео Гуртом - дизайнер


З нами з: 31.07.08
Востаннє: 08.12.16
Повідомлень: 125

2011-02-02 14:41  
Ірина Федишин - Україна колядує (2007) [APE] | Pop



Стиль: Pop
Країна, місто: Україна, Львів
Сайти: Офіційний сайт
Видавець: Атлантік Рекордс
Пісні:
    1. Україна колядує (3:46)
    2. Христос рождається (4:05)
    3. Свята ніч (3:26)
    4. Нова радість (2:53)
    5. Різдвяна хуртовина (3:59)
    6. Коляда (3:06)
    7. Зійшла зоря (3:01)
    8. Миколай (3:31)
    9. Kolyada (3:06)
    10. Батьки мої (3:02)
    відео:
    11. Різдвяна хуртовина (в роздачі відсутнє)

Тривалість: 00:33:57
Мова: українська
Аудіо-кодек:APE
Бітрейт:1024 кб/с
Джерело: rutracker.org
audiocheker
AUDIOCHECKER v2.0 beta (build 457) - by Dester - [email protected]
~~~~~~~~~~~~~~~~~~~~~~~~~~~~~~~~~~

Started at: неділя, 02. 01. 2011. - 13:55.45
1 file found

1 -===- C:\11111\Федишин\Ірина Федишин - Україна колядує.ape
Extracted successfully
Conclusion: this track is CDDA with probability 100%
Tempfile successfully deleted.

Finished at: неділя, 02. 01. 2011. - 14:11.29 (operation time: 0:15.43)
EAC extraction logfile
Exact Audio Copy V1.0 beta 1 from 15. November 2010

EAC extraction logfile from 2. January 2011, 13:54

Ірина Федишин / Україна колядує

Used drive : TSSTcorpDVD+-RW TS-L632H Adapter: 0 ID: 0

Read mode : Secure
Utilize accurate stream : Yes
Defeat audio cache : Yes
Make use of C2 pointers : No

Read offset correction : 6
Overread into Lead-In and Lead-Out : No
Fill up missing offset samples with silence : Yes
Delete leading and trailing silent blocks : No
Null samples used in CRC calculations : Yes
Used interface : Native Win32 interface for Win NT & 2000

Used output format : Monkey's Audio Lossless Encoder v3.99 DLL
Sample format : High Lossless Compression

TOC of the extracted CD

Track | Start | Length | Start sector | End sector
---------------------------------------------------------
1 | 0:00.00 | 3:46.14 | 0 | 16963
2 | 3:46.14 | 4:04.51 | 16964 | 35314
3 | 7:50.65 | 3:26.37 | 35315 | 50801
4 | 11:17.27 | 2:53.05 | 50802 | 63781
5 | 14:10.32 | 3:58.50 | 63782 | 81681
6 | 18:09.07 | 3:06.17 | 81682 | 95648
7 | 21:15.24 | 3:01.27 | 95649 | 109250
8 | 24:16.51 | 3:30.64 | 109251 | 125064
9 | 27:47.40 | 3:06.24 | 125065 | 139038
10 | 30:53.64 | 3:02.11 | 139039 | 152699
11 | 36:28.00 | 22:16.60 | 164100 | 264359

Range status and errors

Selected range

Filename C:\11111\Федишин\Ірина Федишин - Україна колядує.ape

Peak level 97.7 %
Extraction speed 2.5 X
Range quality 100.0 %
Test CRC C9EF4808
Copy CRC C9EF4808
Copy OK

No errors occurred

AccurateRip summary

Track 1 not present in database
Track 2 not present in database
Track 3 not present in database
Track 4 not present in database
Track 5 not present in database
Track 6 not present in database
Track 7 not present in database
Track 8 not present in database
Track 9 not present in database
Track 10 not present in database

None of the tracks are present in the AccurateRip database

End of status report
Додаткова інформація:
Ірина Федишин - молода, але вже помітна улюбленка української публіки. Її дебютний альбом "Твій Ангел" отримав непоганий розголос по всій країні, - і цілком заслужено. Ну а зараз ми пропонуємо Вам послухати другий альбом Ірини Федишин, виданий майже одночасно з першим, - "Україна колядує"!. Взагалі можна сказати, що для західноукраїнських артистів запис різдвяних альбомів давно встиг стати хорошим звичаєм - так що цього разу маємо справу з приємним підтвердженням правила. Старовинні різдвяні пісні з'явилися тут, звичайно, в сучасних обробках - іноді навіть досить танцювальних. Втім, в загальній картині альбому це виглядає доречним - адже йдеться про поп-виконавицю, що користується актуальними ритмами і мелодіями при створенні своїх пісень. До речі, вже традиційно, частину пісень для свого альбому Ірина написала сама. Це стосується і текстів, і музики - і відмічати такі моменти приємно, оскільки вони говорять про серйозне відношення до своєї справи. Не випадково ж Ірину Федишин називають найпопулярнішою на сьогоднішній день співачкою Західної України.


Якщо Ви справді бажаєте підтримати українське - після прослуховування, якщо музика вам сподобалась, придбайте ліцензійний диск. Підтримаймо вітчизняних виконавців!

Цей реліз в MP3


Срібний реліз (на рейтинг впливає 50% завантаженого)
 Трекер:    Зареєстрований   

Завантажити / скачати українську музику



відео для новачків



 Зареєстрований:   2011-02-02 14:41
 Розмір:   248 MB 
 Оцінка музики:   9.9/10 (Голосів: 16)
   
matador1974 
Свій


З нами з: 21.01.10
Востаннє: 22.02.12
Повідомлень: 59

2011-02-06 16:23  
Аудіо-кодек:MP3
рома84 
Поважний учасник


З нами з: 26.12.09
Востаннє: 06.07.16
Повідомлень: 213

2011-02-06 16:30  
Я хотів це викласти (((
ssTAss 
Модератор музики


З нами з: 05.07.08
Востаннє: 10.12.16
Повідомлень: 10950

2011-02-06 17:24  
matador1974 написано:
Аудіо-кодек:MP3

Wide grin
оформлення релізер брав з мр3, а я пропустив)
вже виправив... дякую за уважність
рома84 написано:
Я хотів це викласти (((

можете долучитись до роздачі

рома84 
Поважний учасник


З нами з: 26.12.09
Востаннє: 06.07.16
Повідомлень: 213

2011-02-06 17:59  
ssTAss написано:
можете долучитись до роздачі

Коли звільню трішки місця, обов'язково приэднаюсь

lpershyi 
Попереджень: 2
Попереджень: 2 


З нами з: 04.01.11
Востаннє: 30.11.16
Повідомлень: 2622

2011-07-24 08:26  
рома84 написано:
Я хотів це викласти (((
відео, яке будо на кружальці виставляй!
Gybalj 
Свій


З нами з: 14.05.09
Востаннє: 08.12.16
Повідомлень: 51

2013-01-06 13:44  
Станьте на роздачу!Дякую!
Ваш часовий пояс: GMT + 2 Години

Нова тема   Відповісти