Завантажити та скачати торренти українською


VA - Таврійські Ігри '96 - Найкращі Українські Хіти (1996) [APE] | Pop / Rock

Нові коментарі

Нова тема   Відповісти
Останній раз роздавалося Myfordownloads (2016-10-09)
Автор Повідомлення
iwan wan 
VIP


З нами з: 01.10.09
Востаннє: 10.12.16
Повідомлень: 1762

2011-01-28 16:34  
VA - Таврійські Ігри '96 - Найкращі Українські Хіти (1996) [APE] | Pop / Rock



Стиль: Pop, Rock
Країна: Україна
Видавець: АРТ Проект
Виконавці:
Різні
Пісні:
    1 Ірина Білик - Ти Мій
    2 Олександр Пономарьов- Белый Кадиллак
    3 Скрябін - Птахи
    4 Ані Лорак - Друзья
    5 Плач Єремії - Завтра Прийде До Кімнати... (Вона)
    6 Каріна Плай - Врятуй Мене
    7 Піккардійська Терція - Пустельник
    8 Євгенія Власова - Я Знаю
    9 Андрій Миколайчук - Атаман
    10 Катя Chilly - Дихання Океану
    11 Грін Грей - Иду Я...
    12 Андреа Кабакова - Танці Під Луною
    13 Океан Ельзи - Вона Підійшла До Вікна...
    14 Наталя Могилевська - Девчонка
    15 Братья Карамазовы - Маленькая Стая
    16 Табула Раса - Шейк, ''Шей-Шей''
    17 Євген Фокін - Где Бы Ты Не Была...

Тривалість: 01:13:15
Мова: українська (1, 3, 5 - 10, 13) , російська (2, 4, 11, 12, 14-16)
Бітрейт: 836кб/с
Аудіо-кодек: APE
Джерело: Інший трекер (rutracker.org)
В роздачу входять високоякісні скани булетів в форматі .tif
log
Exact Audio Copy V0.99 prebeta 5 from 4. May 2009
EAC extraction logfile from 1. September 2010, 13:33
Various / Таврійські Ігри '96 - Найкращі Українські Хіти
Used drive : Optiarc DVD RW AD-7170S Adapter: 2 ID: 2
Read mode : Secure
Utilize accurate stream : Yes
Defeat audio cache : Yes
Make use of C2 pointers : No
Read offset correction : 48
Overread into Lead-In and Lead-Out : No
Fill up missing offset samples with silence : Yes
Delete leading and trailing silent blocks : No
Null samples used in CRC calculations : Yes
Used interface : Installed external ASPI interface
Used output format : Internal WAV Routines
Sample format : 44.100 Hz; 16 Bit; Stereo
TOC of the extracted CD
Track | Start | Length | Start sector | End sector
---------------------------------------------------------
1 | 0:00.00 | 3:57.02 | 0 | 17776
2 | 3:57.02 | 4:18.02 | 17777 | 37128
3 | 8:15.04 | 4:05.02 | 37129 | 55505
4 | 12:20.06 | 4:22.02 | 55506 | 75157
5 | 16:42.08 | 5:10.02 | 75158 | 98409
6 | 21:52.10 | 4:04.02 | 98410 | 116711
7 | 25:56.12 | 4:46.02 | 116712 | 138163
8 | 30:42.14 | 4:12.02 | 138164 | 157065
9 | 34:54.16 | 2:45.02 | 157066 | 169442
10 | 37:39.18 | 3:47.02 | 169443 | 186469
11 | 41:26.20 | 4:17.02 | 186470 | 205746
12 | 45:43.22 | 4:41.02 | 205747 | 226823
13 | 50:24.24 | 4:34.02 | 226824 | 247375
14 | 54:58.26 | 4:03.02 | 247376 | 265602
15 | 59:01.28 | 3:30.02 | 265603 | 281354
16 | 62:31.30 | 3:51.02 | 281355 | 298681
17 | 66:22.32 | 6:53.02 | 298682 | 329658
Range status and errors
Selected range
Filename K:\torrents UPLOAD\UKR\V.A. - 1996 - Таврійські Ігри '96 - Найкращі Українські Хіти\V.A. - 1996 - Таврійські Ігри '96 - Найкращі Українські Хіти.wav
Peak level 100.0 %
Range quality 99.9 %
Test CRC F4F1706A
Copy CRC F4F1706A
Copy OK
No errors occurred
AccurateRip summary
Track 1 not present in database
Track 2 not present in database
Track 3 not present in database
Track 4 not present in database
Track 5 not present in database
Track 6 not present in database
Track 7 not present in database
Track 8 not present in database
Track 9 not present in database
Track 10 not present in database
Track 11 not present in database
Track 12 not present in database
Track 13 not present in database
Track 14 not present in database
Track 15 not present in database
Track 16 not present in database
Track 17 not present in database
None of the tracks are present in the AccurateRip database
End of status report
VA - Таврійські Ігри '96 - Найкращі Українські Хіти (1996) [mp3] | Pop / Rock
Якщо Ви справді бажаєте підтримати українське - після прослуховування, якщо музика вам сподобалась, придбайте ліцензійний диск. Підтримаймо вітчизняних виконавців


Срібний реліз (на рейтинг впливає 50% завантаженого)
 Трекер:    Зареєстрований   

Завантажити / скачати українську музику



відео для новачків



 Зареєстрований:   2011-01-28 16:34
 Розмір:   567 MB 
 Оцінка музики:   10/10 (Голосів: 3)
   
taras1988_2008 
Модератор розділу ТБ


З нами з: 01.05.09
Востаннє: 23.10.16
Повідомлень: 871

2011-01-28 18:14  
Тривалість: 00:13:45 щось тривалість мала.

Джеоело: Інший трекер

Nomad 
VIP


З нами з: 17.03.08
Востаннє: 08.02.12
Повідомлень: 513

2011-01-28 19:46  
iwan wan написано:
00:13:45

правильна тривалість 73:15
iwan wan написано:
Джеоело: Інший трекер

мабуть rutracker.org

виправляйте

Skiff 
музика
музика


З нами з: 12.11.07
Востаннє: 09.12.16
Повідомлень: 3051

2011-01-28 20:19  
Nomad написано:
правильна тривалість 73:15
Якщо вже правильно, то 01:13:15 Wink (1)
Nomad 
VIP


З нами з: 17.03.08
Востаннє: 08.02.12
Повідомлень: 513

2011-01-28 21:36  
Все виправив замість релізера, дякую за реліз
ssTAss 
Модератор музики


З нами з: 05.07.08
Востаннє: 10.12.16
Повідомлень: 10950

2011-01-28 22:39  
Nomad написано:
Все виправив замість релізера

а це?
iwan wan написано:
Країна, місто: Україна

iwan wan написано:
Джеоело

дрібнички, але..

iwan wan 
VIP


З нами з: 01.10.09
Востаннє: 10.12.16
Повідомлень: 1762

2011-01-28 22:47  
Виправив
rooster 
Відео Гуртом - фільмокрай
Відео Гуртом - фільмокрай


З нами з: 23.04.09
Востаннє: 04.12.16
Повідомлень: 1328

2011-01-31 15:38  
Приємно знову зануритися у той час, коли я ще у початкову школу ходив, і світ навколо був якийсь променистий, й українські артисти співали набагато якісніші пісні, ніж тепер.
Ваш часовий пояс: GMT + 2 Години

Нова тема   Відповісти