Завантажити та скачати торренти українською


Мина Мазайло [1 з 2] (1991)

Нові коментарі

Нова тема   Відповісти
Останній раз роздавалося romario1234 (2016-12-07)
Автор Повідомлення
sharahome 
Новенький


З нами з: 15.11.10
Востаннє: 07.06.15
Повідомлень: 16

2011-01-25 09:46  
Мина Мазайло [1 з 2] (1991)



Жанр: комедія
Країна: Україна

Кіностудія / кінокомпанія: «Укртелефільм»
Режисер: Сергій Проскурня
Актори: Валерій Івченко, Віталій Розстальний, Лариса Кадирова, Ілона Гаврилюк, Вікторія Корсун, Тамара Яценко

Сюжет:
За мотивами творів Миколи Куліша. Комедійне осмислення деяких суспільних процесів, що відбувалися в Україні 20-х років.


Тривалість: 1:23:35
Якість:
Відео:
кодек:
розмір кадру: 720 х 544
бітрейт: 1 697 кб/с

Аудіо:
мова: українська
переклад: оригінал
кодек:
бітрейт: 192 кб/с

Скріншоти:



Джерело: &
Особиста оцінка: 6 - третій сорт - не брак


Золотий реліз (завантажене не впливає на рейтинг)
 Трекер:    Зареєстрований   

Завантажити / скачати український фільм



відео для новачків



 Зареєстрований:   2011-01-25 09:48
 Розмір:   1.11 GB 
 Оцінка фільму:   9.8/10 (Голосів: 47)
   
Andick 
Модератор відео та координатор поширення


З нами з: 03.11.09
Востаннє: 06.12.16
Повідомлень: 1499

2011-01-25 10:25  
sharahome написано:
кодек: MPEG-4
може ?
sharahome 
Новенький


З нами з: 15.11.10
Востаннє: 07.06.15
Повідомлень: 16

2011-01-25 10:51  
хіба ?

Complete name : E:\Українськi_фiльми\Мина Мазайло (1 из 2) 1991_TVRip_ukr.avi
Format : AVI
Format/Info : Audio Video Interleave
File size : 1.11 GiB
Duration : 1h 23mn
Overall bit rate : 1 899 Kbps
Writing application : VirtualDubMod 1.5.10.2 (build 2540/release)
Writing library : VirtualDubMod build 2540/release

Video
ID : 0
Format : MPEG-4 Visual
Format profile : Advanced [email protected]
Format settings, BVOP : Yes
Format settings, QPel : No
Format settings, GMC : No warppoints
Format settings, Matrix : Default (H.263)
Codec ID :
Codec ID/Hint :
Duration : 1h 23mn
Bit rate : 1 697 Kbps
Width : 720 pixels
Height : 544 pixels
Display aspect ratio : 4:3
Frame rate : 25.000 fps
Color space : YUV
Chroma subsampling : 4:2:0
Bit depth : 8 bits
Scan type : Progressive
Compression mode : Lossy
Bits/(Pixel*Frame) : 0.173
Stream size : 1 015 MiB (89%)
Writing library : 1.2.0.dev47 (UTC 2006-11-01)

Audio
ID : 1
Format : AC-3
Format/Info : Audio Coding 3
Mode extension : CM (complete main)
Codec ID : 2000
Duration : 1h 23mn
Bit rate mode : Constant
Bit rate : 192 Kbps
Channel(s) : 2 channels
Channel positions : Front: L R
Sampling rate : 48.0 KHz
Bit depth : 16 bits
Compression mode : Lossy
Stream size : 115 MiB (10%)
Alignment : Split accross interleaves
Interleave, duration : 40 ms (1.00 video frame)
Interleave, preload duration : 500 ms
Додано через 1 хвилину 57 секунд:

А , а й справді

Додано через 21 хвилину 13 секунд:

Андрюха давай одобрюй Rolleyes (2)

sharahome 
Новенький


З нами з: 15.11.10
Востаннє: 07.06.15
Повідомлень: 16

2011-01-25 15:13  
Друга серія тут : http://toloka.to/p275549#275549
nussa 
Новенький


З нами з: 03.03.10
Востаннє: 25.07.13
Повідомлень: 11

2011-01-26 19:01  
Давно шукала цей фільм, але не можу завантажити-швидкість-нуль!!!
sharahome 
Новенький


З нами з: 15.11.10
Востаннє: 07.06.15
Повідомлень: 16

2011-01-27 12:36  
Провайдер швидкість порізав зі 100 до 1 МБіт
Уніат 
Свій


З нами з: 28.03.09
Востаннє: 16.03.15
Повідомлень: 90

2011-01-27 14:14  
Дуже дякую! Давно чекав цієї стрічки.
sharahome 
Новенький


З нами з: 15.11.10
Востаннє: 07.06.15
Повідомлень: 16

2011-01-27 17:01  
nussa написано:
Давно шукала цей фільм, але не можу завантажити-швидкість-нуль!!!

Томущо клієнт Opera 8+

kukazavr 
Новенький


З нами з: 27.01.11
Востаннє: 25.07.16
Повідомлень: 2

2011-01-28 07:45  
встаньте будь ласка на роздачу
nussa 
Новенький


З нами з: 03.03.10
Востаннє: 25.07.13
Повідомлень: 11

2011-01-29 15:50  
Дякую,завантажила. Просто я не дуже розуміюся на цьому, тому завантажила аж три рази цей самий фільм.Зараз розібралася вже. Вибачте, якщо образила когось.
sharky53 
Частий відвідувач


З нами з: 31.08.09
Востаннє: 07.10.16
Повідомлень: 40

2011-02-10 07:46  
Цей реліз узятий з ex.ua ріп sharky53

Правила оформлення відео-релізу

12. Джерело або реліз група
Тут вказується першоджерело отриманої інформації, або група, яка займалась ріпом відповідного фільму чи зведенням доріжки, абощо. Поважайте працю інших.

Givi 
Модератор відео


З нами з: 25.02.08
Востаннє: 08.12.16
Повідомлень: 2862

2011-02-14 16:59  
А чому не в одній темі обидві серії? Треба в одну.
TeriIvan 
Новенький


З нами з: 13.12.11
Востаннє: 13.12.11
Повідомлень: 1

2011-12-13 21:28  
станьте на раздачу
Віктор 
Відео Гуртом - субтитрування
Відео Гуртом - субтитрування


З нами з: 09.01.10
Востаннє: 08.12.16
Повідомлень: 8663

2013-07-01 19:55  
Givi написано:
А чому не в одній темі обидві серії? Треба в одну.

Згоден, бо це не діло, хоча б посилання в темі оформлення на другу частину дали, а не в 3-му повідомленні.

Givi 
Модератор відео


З нами з: 25.02.08
Востаннє: 08.12.16
Повідомлень: 2862

2013-07-01 20:40  
Віктор написано:
хоча б посилання в темі оформлення на другу частину дали

Відредагував.

Ваш часовий пояс: GMT + 2 Години

Нова тема   Відповісти