Завантажити та скачати торренти українською


Залізна людина 2 / Iron Man 2 (2010) 1080p Ukr/Eng | Sub-Eng

Нові коментарі

Нова тема   Відповісти
Автор Повідомлення
Kuzmenko 
Відео Гуртом - команда HD
Відео Гуртом - команда HD


З нами з: 02.02.10
Востаннє: 03.12.16
Повідомлень: 144

2011-01-24 19:53  
Залізна людина 2 / Iron Man 2 (2010) 1080p Ukr/Eng | Sub-Eng



Жанр: бойовик, фантастика, пригодницький
Країна: США



Кіностудія / кінокомпанія: Paramount Pictures
Режисер: Джон Фавро
Актори: Роберт Дауні-мол. , Скарлетт Йохансон , Сем Роквелл , Міккі Рурк , Гвінет Пелтроу , Пол Беттані , Семюел Л. Джексон , Дон Чідл , Пол Беттані , Кейт Мара, Джон Фавро , Тім Джині, Стен Лі

Сюжет:
Світ знає, що мільярдер-винахідник Тоні Старк супергерой Залізна людина. Під тиском з боку уряду, преси та громадськості щоб той передав технологію військовим, Тоні не хоче розголошувати секрети броні Залізної Людини, тому що він боїться, що інформація піде в чужі руки. З Пеппер Поттс і Джеймсом Роудсом, на його боці, Тоні знаходить нових союзників і протистоїть новим, ще більш потужним силам.


Тривалість: 02:04:39
Якість: 1080p
Відео:
кодек:
розмір кадру: 1920 х 816
бітрейт: 12,4 Мб/с

Аудіо # 1:
мова: українська
переклад: професійний дубльований
кодек: 5.1
бітрейт: 448 кб/с

Аудіо # 2:
мова: англійська
переклад: оригінал
кодек:
бітрейт: 1510 кб/с

Аудіо # 3:
мова: англійська
переклад: коментарі режисера
кодек: 5.1
бітрейт: 224 кб/с

Переклад і озвучення виконано:


Субтитри:
мова: англійська - повні
тип: програмні (м'які)
формат: UTF-8

Субтитри:
мова: англійська - коментарі режисера
тип: програмні (м'які)
формат: UTF-8

Інші релізи:
Ukr/Eng
Ukr/Eng | Ліцензія
Ukr/Eng
Ukr/Eng
720p Sub-Eng
1080p Ukr/Eng | Sub-Eng
Скріншоти






MediaInfo
General
Complete name : H:\Downloads\Релізи\[Hurtom.com]\Iron Man 2 (2010) [ukr,eng] 1080p [Hurtom] by Kuzmenko.mkv
Format : Matroska
File size : 12.7 GiB
Duration : 2h 4mn
Overall bit rate : 14.6 Mbps
Movie name : Iron Man 2 (2010) [ukr,eng] 1080p [Hurtom] by Kuzmenko
Encoded date : UTC 2011-01-24 16:33:08
Writing application : mkvmerge v4.3.0 ('Escape from the Island') збірка від Sep 5 2010 10:30:51
Writing library : libebml v1.0.0 + libmatroska v1.0.0

Video
ID : 1
Format : AVC
Format/Info : Advanced Video Codec
Format profile : [email protected]
Format settings, CABAC : Yes
Format settings, ReFrames : 5 frames
Muxing mode : Header stripping
Codec ID : V_MPEG4/ISO/AVC
Duration : 2h 4mn
Bit rate : 12.4 Mbps
Width : 1 920 pixels
Height : 816 pixels
Display aspect ratio : 2.35:1
Frame rate : 23.976 fps
Color space : YUV
Chroma subsampling : 4:2:0
Bit depth : 8 bits
Scan type : Progressive
Bits/(Pixel*Frame) : 0.330
Stream size : 10.5 GiB (83%)
Title : Iron Man 2 (2010) [ukr,eng] 1080p [Hurtom] by Kuzmenko
Writing library : core 104 r1703 cd21d05
Encoding settings : cabac=1 / ref=5 / deblock=1:-3:-3 / analyse=0x3:0x113 / me=umh / subme=9 / psy=1 / psy_rd=1.00:0.00 / mixed_ref=1 / me_range=32 / chroma_me=1 / trellis=2 / 8x8dct=1 / cqm=0 / deadzone=21,11 / fast_pskip=0 / chroma_qp_offset=-4 / threads=12 / sliced_threads=0 / nr=0 / decimate=0 / interlaced=0 / constrained_intra=0 / bframes=5 / b_pyramid=2 / b_adapt=2 / b_bias=0 / direct=3 / weightb=1 / open_gop=0 / weightp=2 / keyint=250 / keyint_min=23 / scenecut=40 / intra_refresh=0 / rc=2pass / mbtree=0 / bitrate=12410 / ratetol=1.0 / qcomp=0.60 / qpmin=10 / qpmax=51 / qpstep=4 / cplxblur=20.0 / qblur=0.5 / ip_ratio=1.40 / pb_ratio=1.30 / aq=1:0.90
Language : English

Audio #1
ID : 2
Format : AC-3
Format/Info : Audio Coding 3
Mode extension : CM (complete main)
Muxing mode : Header stripping
Codec ID : A_AC3
Duration : 2h 4mn
Bit rate mode : Constant
Bit rate : 448 Kbps
Channel(s) : 6 channels
Channel positions : Front: L C R, Side: L R, LFE
Sampling rate : 48.0 KHz
Bit depth : 16 bits
Video delay : 1s 0ms
Stream size : 399 MiB (3%)
Title : 5.1 @ 448bps Українська - дубляж
Language : Ukrainian

Audio #2
ID : 3
Format :
Format/Info : Digital Theater Systems
Muxing mode : Header stripping
Codec ID : A_DTS
Duration : 2h 4mn
Bit rate mode : Constant
Bit rate : 1 510 Kbps
Channel(s) : 6 channels
Channel positions : Front: L C R, Side: L R, LFE
Sampling rate : 48.0 KHz
Bit depth : 24 bits
Stream size : 1.31 GiB (10%)
Title : 5.1 @ 1510 kbps Англійська - оригінал
Language : English

Audio #3
ID : 4
Format : AC-3
Format/Info : Audio Coding 3
Mode extension : CM (complete main)
Muxing mode : Header stripping
Codec ID : A_AC3
Duration : 2h 4mn
Bit rate mode : Constant
Bit rate : 224 Kbps
Channel(s) : 2 channels
Channel positions : Front: L R
Sampling rate : 48.0 KHz
Bit depth : 16 bits
Stream size : 200 MiB (2%)
Title : 2.0 @ 224 Kbps Англійська - коментарі
Language : English

Text #1
ID : 5
Format : UTF-8
Codec ID : S_TEXT/UTF8
Codec ID/Info : UTF-8 Plain Text
Title : Аглійські повні
Language : English

Text #2
ID : 6
Format : UTF-8
Codec ID : S_TEXT/UTF8
Codec ID/Info : UTF-8 Plain Text
Title : Англійські коментарі
Language : English

Menu
00:00:00.000 : en:00:00:00.000
00:05:04.304 : en:00:05:04.304
00:11:07.584 : en:00:11:07.584
00:17:59.954 : en:00:17:59.954
00:25:53.010 : en:00:25:53.010
00:30:26.783 : en:00:30:26.783
00:37:33.001 : en:00:37:33.001
00:43:59.637 : en:00:43:59.637
00:51:39.346 : en:00:51:39.346
01:00:10.523 : en:01:00:10.523
01:07:01.517 : en:01:07:01.517
01:16:00.764 : en:01:16:00.764
01:21:13.285 : en:01:21:13.285
01:30:33.553 : en:01:30:33.553
01:38:49.340 : en:01:38:49.340
01:45:41.794 : en:01:45:41.794
01:54:17.350 : en:01:54:17.350
Джерело: &
Особиста оцінка: 10 - без зайвих вагань рекомендую всім!


 Трекер:    Зареєстрований   

Завантажити / скачати фільм українською



відео для новачків



 Зареєстрований:   2011-01-24 20:36
 Розмір:   12.7 GB 
 Оцінка фільму:   9.6/10 (Голосів: 43)
   
[email protected] 
Свій


З нами з: 10.08.10
Востаннє: 03.12.16
Повідомлень: 51

2011-01-24 21:31  
Супер, дякую за реліз давно чекав його на гуртомі)
Kuzmenko 
Відео Гуртом - команда HD
Відео Гуртом - команда HD


З нами з: 02.02.10
Востаннє: 03.12.16
Повідомлень: 144

2011-01-24 21:34  
Завтра залию 720р з фільмом про фільм
[email protected] 
Свій


З нами з: 10.08.10
Востаннє: 03.12.16
Повідомлень: 51

2011-01-24 21:54  
Проте як знімали?
Kuzmenko 
Відео Гуртом - команда HD
Відео Гуртом - команда HD


З нами з: 02.02.10
Востаннє: 03.12.16
Повідомлень: 144

2011-01-25 10:42  
так....
Jatx_11 
Відео Гуртом - фільмокрай
Відео Гуртом - фільмокрай


З нами з: 20.04.11
Востаннє: 23.10.16
Повідомлень: 700

2011-07-06 18:00  
Цей фільм реально докачати, бо я хочу скачати, а тут я бачу 5% не роздадут. Станьте хтось на роздачу
Wensun 
Частий відвідувач


З нами з: 20.01.09
Востаннє: 05.12.16
Повідомлень: 47

2011-07-06 21:46  
Підтримую !!! мені залишилось 527 мб, вже 4 дні ні кілобайта, станьте хтось на роздачу
Jatx_11 
Відео Гуртом - фільмокрай
Відео Гуртом - фільмокрай


З нами з: 20.04.11
Востаннє: 23.10.16
Повідомлень: 700

2011-07-14 20:51  
В кінці немає звуку
maxbig 
Частий відвідувач


З нами з: 19.01.11
Востаннє: 02.12.16
Повідомлень: 26

2011-07-30 00:36  
Jatx_11 написано:
В кінці немає звуку


В кінцевому епізоді, де спойлер про Тора ?

Jatx_11 
Відео Гуртом - фільмокрай
Відео Гуртом - фільмокрай


З нами з: 20.04.11
Востаннє: 23.10.16
Повідомлень: 700

2011-07-30 11:19  
Так
maxbig 
Частий відвідувач


З нами з: 19.01.11
Востаннє: 02.12.16
Повідомлень: 26

2011-07-31 14:14  
Jatx_11 написано:
Так


Хіба то проблема? Агент каже всього одну фразу зміст якої зрозумілий завдяки відеоряду епізоду=) Хоча в російській версії цей епізод начебто був перекладений.

wazak 
Новенький


З нами з: 17.03.12
Востаннє: 28.11.16
Повідомлень: 1

2012-03-21 17:57  
встаньте, будь ласка, хтось на роздачу, бо швидкості взагалі немає....
raragon100 
Частий відвідувач


З нами з: 14.10.09
Востаннє: 25.11.16
Повідомлень: 31

2012-08-23 13:25  
Станьте будь ласка на роздачу, швидкість на нулі(
Ваш часовий пояс: GMT + 2 Години

Нова тема   Відповісти