Завантажити та скачати торренти українською


Василь Мельникович - Гуцул Хуліган (2003) [APE] | Pop/Folk

Нові коментарі

Нова тема   Відповісти
Останній раз роздавалося natashelka (2016-12-05)
Автор Повідомлення
iwan wan 
VIP


З нами з: 01.10.09
Востаннє: 06.12.16
Повідомлень: 1760

2011-01-24 18:38  
Василь Мельникович - Гуцул Хуліган (2003) [APE] | Pop/Folk



Стиль: Pop Folk
Країна, місто: Україна
Сайти: Офіційний сайт
Видавець: 6 секунд
Виконавці:
Василь Мельникович
Пісні:
    1. Вступ
    2. Коломийка про москалів
    3. Коломийка емігрантів
    4. Коломийка гуцульська
    5. Пісня про куму
    6. Пісня про коника
    7. Шалом
    8. Голубка
    9. Канада
    10. Коломийка про Хусейна
    11. Сеньйора
    12. Закінчення

Тривалість: 00:43:55
Мова: українська
Аудіо-кодек: APE
Бітрейт: 900 кб/с
Джерело: Інший трекер
Додаткова інформація:
Зовсім не випадково Василь Мельникович взяв колись собі псевдонім Гуцул-хуліган. Це ім’я одразу чітко визначає дві головні риси того, що він робить. З одного боку, його пісні мають в основі український фольклор – точніше, фольклор карпатський. Таким чином, значна частина мелодій звучанням дуже нагадує гуцульські коломийки. Ну а з іншого боку, Василь Мельникович таки справді є хуліганом. Тому що за змістом його пісні теж дуже нагадують коломийки, які здавна вирізнялися гостротою текстів. В даному ж випадку тексти значно модернізовано, а значить – тут можна знайти будь-які прояви нашого життя, від сексуальних до політичних. Власне, в основному – саме ці дві теми, але не тільки. Оскільки ж Гуцул-хуліган не надто соромиться, то і виходить, що його пісні зовсім непогано висміюють нашу повсякденну дійсність. От слухаєш – і не завжди навіть розумієш, де жарт, а де правда, бо життя часто підкидає якісь несподівані, навіть гротескні ситуації. Василь Мельникович вміє такі речі помічати – мабуть, саме тому і користується популярністю в народі.
УМКА
log
Exact Audio Copy V0.99 prebeta 5 from 4. May 2009
EAC extraction logfile from 17. May 2010, 20:30
Василь Мельникович / Гуцул - хуліган
Used drive : HL-DT-STDVDRAM GH22LS50 Adapter: 2 ID: 0
Read mode : Secure
Utilize accurate stream : Yes
Defeat audio cache : Yes
Make use of C2 pointers : No
Read offset correction : 48
Overread into Lead-In and Lead-Out : No
Fill up missing offset samples with silence : Yes
Delete leading and trailing silent blocks : No
Null samples used in CRC calculations : Yes
Used interface : Installed external ASPI interface
Used output format : Internal WAV Routines
Sample format : 44.100 Hz; 16 Bit; Stereo
TOC of the extracted CD
Track | Start | Length | Start sector | End sector
---------------------------------------------------------
1 | 0:00.00 | 0:43.60 | 0 | 3284
2 | 0:43.60 | 4:57.33 | 3285 | 25592
3 | 5:41.18 | 3:26.14 | 25593 | 41056
4 | 9:07.32 | 5:22.18 | 41057 | 65224
5 | 14:29.50 | 3:22.74 | 65225 | 80448
6 | 17:52.49 | 3:27.52 | 80449 | 96025
7 | 21:20.26 | 4:01.56 | 96026 | 114156
8 | 25:22.07 | 5:22.38 | 114157 | 138344
9 | 30:44.45 | 3:57.33 | 138345 | 156152
10 | 34:42.03 | 4:03.43 | 156153 | 174420
11 | 38:45.46 | 3:54.37 | 174421 | 192007
12 | 42:40.08 | 0:23.43 | 192008 | 193775
Range status and errors
Selected range
Filename D:\guzul\guzul.wav
Peak level 70.7 %
Range quality 100.0 %
Test CRC 5A1A575C
Copy CRC 5A1A575C
Copy OK
No errors occurred

None of the tracks are present in the AccurateRip database
End of status report

Якщо Ви справді бажаєте підтримати українське - після прослуховування, якщо музика вам сподобалась, придбайте ліцензійний диск. Підтримаймо вітчизняних виконавців!


Срібний реліз (на рейтинг впливає 50% завантаженого)
 Трекер:    Зареєстрований   

Завантажити / скачати українську музику



відео для новачків



 Зареєстрований:   2011-01-24 18:38
 Розмір:   288 MB 
 Оцінка музики:   9.8/10 (Голосів: 6)
   
Tarasyk 
Відео Гуртом - фільмокрай
Відео Гуртом - фільмокрай


З нами з: 26.08.09
Востаннє: 28.11.16
Повідомлень: 5972

2011-01-24 18:50  
iwan wan, було б чудово, якби ви додали лінки на інші альбоми і зробили ріп цього альбому в mp3, бо там, хоч якість і нормальна, але не вистачає 12-го треку.
iwan wan 
VIP


З нами з: 01.10.09
Востаннє: 06.12.16
Повідомлень: 1760

2011-01-24 19:13  
Троха згодом
Ваш часовий пояс: GMT + 2 Години

Нова тема   Відповісти