Завантажити та скачати торренти українською


Наталка Карпа – Ти пробач мені (2005) [FLAC] | Pop

Нові коментарі

Нова тема   Відповісти
Автор Повідомлення
Fritz 
Частий відвідувач


З нами з: 27.04.09
Востаннє: 31.05.15
Повідомлень: 32

2011-01-20 15:33  
Наталка Карпа – Ти пробач мені (2005) [FLAC] | Pop



Стиль: Pop
Країна, місто: Україна (Добромиль, Львів, Київ)
Сайти: Офіційний сайт
Видавець: "Гал рекордс"
Виконавці:
Наталка Карпа, Гєник
Пісні:
    "Аудіо"

    1. А калина не верба
    музика: українська народна пісня
    2. Піду за тобою
    музика: А. Бакун
    слова: А. Бакун
    3. Без тебе мучусь
    слова: О. Садова
    4. Тобі, тобі одному
    музика: іспанська народна пісня
    слова: І. Доля
    5. Зачаруй мене
    музика: О. Баран
    слова: В. Герасименко
    6. В саду гуляла
    музика: українська народна пісня
    7. Зелений листочок
    музика: О. Харитонов
    слова: В. Сєрова
    8. Я додому повернусь
    музика: Л. Остапенко
    слова: В. Герасименко
    9. Весільна
    музика: Л. Остапенко
    слова: В. Герасименко
    10. Мій чарівник
    музика: О. Харитонов
    слова: В. Сєрова
    11. Грінго
    музика: О. Харитонов
    слова: В. Сєрова
    12. Зима
    музика: Л. Остапенко
    слова: В. Герасименко
    13. Знаю
    музика: А. Бакун
    слова: А. Бакун
    14. Ти пробач мені
    музика: А. Бакун
    слова: А. Бакун
    "Відео"
    "15. Ти пробач мені"

    Video
    Format : MPEG-4 Visual
    Codec ID/Hint : DivX 5
    Duration : 3mn 47s
    Bit rate : 1 933 Kbps
    Width : 704 pixels
    Height : 528 pixels
    Display aspect ratio : 4:3

    Audio
    Format : PCM
    Bit rate : 1 536 Kbps
    Channel(s) : 2 channels
    Sampling rate : 48.0 KHz
    Bit depth : 16 bits


    "16. Я додому повернусь"

    Video
    Format : MPEG-4 Visual
    Codec ID/Hint : DivX 5
    Duration : 4mn 26s
    Bit rate : 1 444 Kbps
    Width : 704 pixels
    Height : 528 pixels
    Display aspect ratio : 4:3

    Audio
    Format : PCM
    Bit rate : 1 536 Kbps
    Channel(s) : 2 channels
    Sampling rate : 48.0 KHz
    Bit depth : 16 bits



Тривалість: 00:54:13
Мова: українська
Аудіо-кодек: FLAC
Бітрейт: 934 Kbps
Джерело: Інше
Додаткова інформація:
"EAC"

Exact Audio Copy V0.99 prebeta 5 from 4. May 2009

EAC extraction logfile from 19. January 2011, 23:09

Наталка Карпа / Ти пробач мені

Used drive : ASUS DRW-1814BLT Adapter: 0 ID: 0

Read mode : Secure
Utilize accurate stream : Yes
Defeat audio cache : Yes
Make use of C2 pointers : No

Read offset correction : 6
Overread into Lead-In and Lead-Out : No
Fill up missing offset samples with silence : Yes
Delete leading and trailing silent blocks : No
Null samples used in CRC calculations : Yes
Used interface : Native Win32 interface for Win NT & 2000
Gap handling : Appended to previous track

Used output format : User Defined Encoder
Selected bitrate : 896 kBit/s
Quality : High
Add ID3 tag : No
Command line compressor : C:\Program Files (x86)\Exact Audio Copy\FLAC\FLAC.EXE
Additional command line options : -8 -V -T "ARTIST=%a" -T "TITLE=%t" -T "ALBUM=%g" -T "DATE=%y" -T "TRACKNUMBER=%n" -T "GENRE=%m" -T "COMMENT=EAC FLAC -8" %s

TOC of the extracted CD

Track | Start | Length | Start sector | End sector
---------------------------------------------------------
1 | 0:00.00 | 3:34.02 | 0 | 16051
2 | 3:34.02 | 3:57.02 | 16052 | 33828
3 | 7:31.04 | 3:50.47 | 33829 | 51125
4 | 11:21.51 | 3:00.30 | 51126 | 64655
5 | 14:22.06 | 4:01.35 | 64656 | 82765
6 | 18:23.41 | 4:03.39 | 82766 | 101029
7 | 22:27.05 | 3:51.73 | 101030 | 118427
8 | 26:19.03 | 4:30.56 | 118428 | 138733
9 | 30:49.59 | 3:24.63 | 138734 | 154096
10 | 34:14.47 | 4:23.31 | 154097 | 173852
11 | 38:38.03 | 3:19.43 | 173853 | 188820
12 | 41:57.46 | 4:02.63 | 188821 | 207033
13 | 46:00.34 | 4:06.69 | 207034 | 225552
14 | 50:07.28 | 4:31.53 | 225553 | 245930
15 | 57:11.06 | 21:33.15 | 257331 | 354320

Track 1

Filename E:\waffles.fm\01. Наталка Карпа – А калина не верба.wav

Pre-gap length 0:00:02.00

Peak level 100.0 %
Track quality 100.0 %
Test CRC 20AA4DB6
Copy CRC 20AA4DB6
Track not present in AccurateRip database
Copy OK

Track 2

Filename E:\waffles.fm\02. Наталка Карпа – Піду за тобою.wav

Peak level 100.0 %
Track quality 100.0 %
Test CRC A36B6440
Copy CRC A36B6440
Track not present in AccurateRip database
Copy OK

Track 3

Filename E:\waffles.fm\03. Наталка Карпа – Без тебе мучусь.wav

Peak level 100.0 %
Track quality 100.0 %
Test CRC FE5DFA48
Copy CRC FE5DFA48
Track not present in AccurateRip database
Copy OK

Track 4

Filename E:\waffles.fm\04. Наталка Карпа – Тобі, тобі одному.wav

Peak level 100.0 %
Track quality 100.0 %
Test CRC 89B60C81
Copy CRC 89B60C81
Track not present in AccurateRip database
Copy OK

Track 5

Filename E:\waffles.fm\05. Наталка Карпа – Зачаруй мене.wav

Peak level 100.0 %
Track quality 100.0 %
Test CRC D331ACD5
Copy CRC D331ACD5
Track not present in AccurateRip database
Copy OK

Track 6

Filename E:\waffles.fm\06. Наталка Карпа – В саду гуляла.wav

Peak level 100.0 %
Track quality 100.0 %
Test CRC BC355153
Copy CRC BC355153
Track not present in AccurateRip database
Copy OK

Track 7

Filename E:\waffles.fm\07. Наталка Карпа – Зелений листочок.wav

Peak level 100.0 %
Track quality 100.0 %
Test CRC 5126DD08
Copy CRC 5126DD08
Track not present in AccurateRip database
Copy OK

Track 8

Filename E:\waffles.fm\08. Наталка Карпа – Я додому повернусь.wav

Peak level 93.6 %
Track quality 100.0 %
Test CRC B4171C01
Copy CRC B4171C01
Track not present in AccurateRip database
Copy OK

Track 9

Filename E:\waffles.fm\09. Наталка Карпа – Весільна.wav

Peak level 100.0 %
Track quality 100.0 %
Test CRC CFBB648E
Copy CRC CFBB648E
Track not present in AccurateRip database
Copy OK

Track 10

Filename E:\waffles.fm\10. Наталка Карпа – Мій Чарівник.wav

Peak level 100.0 %
Track quality 100.0 %
Test CRC 9002B551
Copy CRC 9002B551
Track not present in AccurateRip database
Copy OK

Track 11

Filename E:\waffles.fm\11. Наталка Карпа – Грінго.wav

Peak level 100.0 %
Track quality 99.9 %
Test CRC 3ACCE11B
Copy CRC 3ACCE11B
Track not present in AccurateRip database
Copy OK

Track 12

Filename E:\waffles.fm\12. Наталка Карпа – Зима.wav

Peak level 99.9 %
Track quality 100.0 %
Test CRC 05B23C24
Copy CRC 05B23C24
Track not present in AccurateRip database
Copy OK

Track 13

Filename E:\waffles.fm\13. Наталка Карпа – Знаю (Дует з Геником).wav

Peak level 100.0 %
Track quality 100.0 %
Test CRC 8FC61A70
Copy CRC 8FC61A70
Track not present in AccurateRip database
Copy OK

Track 14

Filename E:\waffles.fm\14. Наталка Карпа – Ти пробач мені (Дует з Геником).wav

Peak level 100.0 %
Track quality 100.0 %
Test CRC C21FE64F
Copy CRC C21FE64F
Track not present in AccurateRip database
Copy OK

None of the tracks are present in the AccurateRip database

No errors occurred

End of status report
"Audiochecker"

AUDIOCHECKER v2.0 beta (build 457) - by Dester - [email protected]
~~~~~~~~~~~~~~~~~~~~~~~~~~~~~~~~~~

Started at: четвер, 20. 01. 2011. - 14:16.47
14 files found

01 -===- E:\waffles.fm\Наталка Карпа – Ти пробач мені (2005)\01. Наталка Карпа – А калина не верба.flac
Extracted successfully
Conclusion: this track is MPEG with probability 95%
Tempfile successfully deleted.

02 -===- E:\waffles.fm\Наталка Карпа – Ти пробач мені (2005)\02. Наталка Карпа – Піду за тобою.flac
Extracted successfully
Conclusion: this track is CDDA with probability 100%
Tempfile successfully deleted.

03 -===- E:\waffles.fm\Наталка Карпа – Ти пробач мені (2005)\03. Наталка Карпа – Без тебе мучусь.flac
Extracted successfully
Conclusion: this track is MPEG with probability 95%
Tempfile successfully deleted.

04 -===- E:\waffles.fm\Наталка Карпа – Ти пробач мені (2005)\04. Наталка Карпа – Тобі, тобі одному.flac
Extracted successfully
Conclusion: this track is MPEG with probability 95%
Tempfile successfully deleted.

05 -===- E:\waffles.fm\Наталка Карпа – Ти пробач мені (2005)\05. Наталка Карпа – Зачаруй мене.flac
Extracted successfully
Conclusion: this track is MPEG with probability 95%
Tempfile successfully deleted.

06 -===- E:\waffles.fm\Наталка Карпа – Ти пробач мені (2005)\06. Наталка Карпа – В саду гуляла.flac
Extracted successfully
Conclusion: this track is MPEG with probability 95%
Tempfile successfully deleted.

07 -===- E:\waffles.fm\Наталка Карпа – Ти пробач мені (2005)\07. Наталка Карпа – Зелений листочок.flac
Extracted successfully
Conclusion: this track is CDDA with probability 94%
Tempfile successfully deleted.

08 -===- E:\waffles.fm\Наталка Карпа – Ти пробач мені (2005)\08. Наталка Карпа – Я додому повернусь.flac
Extracted successfully
Conclusion: this track is MPEG with probability 95%
Tempfile successfully deleted.

09 -===- E:\waffles.fm\Наталка Карпа – Ти пробач мені (2005)\09. Наталка Карпа – Весільна.flac
Extracted successfully
Conclusion: this track is MPEG with probability 95%
Tempfile successfully deleted.

10 -===- E:\waffles.fm\Наталка Карпа – Ти пробач мені (2005)\10. Наталка Карпа – Мій Чарівник.flac
Extracted successfully
Conclusion: this track is MPEG with probability 95%
Tempfile successfully deleted.

11 -===- E:\waffles.fm\Наталка Карпа – Ти пробач мені (2005)\11. Наталка Карпа – Грінго.flac
Extracted successfully
Conclusion: this track is CDDA with probability 100%
Tempfile successfully deleted.

12 -===- E:\waffles.fm\Наталка Карпа – Ти пробач мені (2005)\12. Наталка Карпа – Зима.flac
Extracted successfully
Conclusion: this track is MPEG with probability 95%
Tempfile successfully deleted.

13 -===- E:\waffles.fm\Наталка Карпа – Ти пробач мені (2005)\13. Наталка Карпа – Знаю (Дует з Геником).flac
Extracted successfully
Conclusion: this track is CDDA with probability 99%
Tempfile successfully deleted.

14 -===- E:\waffles.fm\Наталка Карпа – Ти пробач мені (2005)\14. Наталка Карпа – Ти пробач мені (Дует з Геником).flac
Extracted successfully
Conclusion: this track is CDDA with probability 100%
Tempfile successfully deleted.

Finished at: четвер, 20. 01. 2011. - 14:20.32 (operation time: 0:03.44)
"Спектр"


У комплекті: Відскановані обкладинки та диск, лог ЕАС, файл CUE, плейлист M3U, лог Audiochecker-а, спектрограми, аудіо та відео.
Диск ліцензійний, а щодо якості, маємо те, що маємо


Якщо Ви справді бажаєте підтримати українське - після прослуховування, якщо музика вам сподобалась, придбайте ліцензійний диск. Підтримаймо вітчизняних виконавців!


Срібний реліз (на рейтинг впливає 50% завантаженого)
 Трекер:    Зареєстрований   

Завантажити / скачати українську музику



відео для новачків



 Зареєстрований:   2011-01-20 15:33
 Розмір:   560 MB 
 Оцінка музики:   10/10 (Голосів: 6)
   
ssTAss 
Модератор музики


З нами з: 05.07.08
Востаннє: 03.12.16
Повідомлень: 10932

2011-01-22 00:10  
оформлення супер... і не прикопаєшся))

тільки скажіть, що то за "мушки" на обкладинці? на носі і на плечі Наталки... ніби в оригіналі такого нема.. чи то сказ сканера?

Fritz 
Частий відвідувач


З нами з: 27.04.09
Востаннє: 31.05.15
Повідомлень: 32

2011-01-22 01:38  
Цитата:
що то за "мушки" на обкладинці?

Мабуть попало щось на скло, або на обкладинку. В оригіналі і справді немає. )

ssTAss 
Модератор музики


З нами з: 05.07.08
Востаннє: 03.12.16
Повідомлень: 10932

2011-01-22 02:52  
спробував їх забрати
front

Fritz 
Частий відвідувач


З нами з: 27.04.09
Востаннє: 31.05.15
Повідомлень: 32

2011-01-22 03:27  
Чудово! Обкладинка, як новенька.
matador1974 
Свій


З нами з: 21.01.10
Востаннє: 22.02.12
Повідомлень: 59

2011-01-24 20:52  
дякую
і за оформлення
ssTAss беріть прикладHappy

natashelka 
VIP


З нами з: 23.05.10
Востаннє: 04.12.16
Повідомлень: 441

2012-05-02 10:28  
Красуня! І співає гарно!

plazmatix 
Свій


З нами з: 14.11.09
Востаннє: 30.11.16
Повідомлень: 71

2013-07-04 07:30  
роздайте будь ласка!
ще 40% лишилося і стоїть вже два тижні (

Ваш часовий пояс: GMT + 2 Години

Нова тема   Відповісти