Завантажити та скачати торренти українською


Росава - Тепер і потім (2009) [FLAC] | Pop / Rock

Нові коментарі

Нова тема   Відповісти
Автор Повідомлення
ssTAss 
Модератор музики


З нами з: 05.07.08
Востаннє: 09.12.16
Повідомлень: 10948

2011-01-18 01:39  
Росава - Тепер і потім (2009) [FLAC] | Pop / Rock



Стиль: Pop, Rock
Країна, місто: Україна, Київ
Сайти: Офіційний сайт
Видавець: Comp Music/EMI
Виконавці:
Олена Янчук (Росава) - виконавиця, співавтор музики та текстів і продюсер альбому.
Пісні:
    1. Тепер і потім
    2. Тиша
    3. Вода
    4. Мертві троянди
    5. На початку
    6. Кличу тебе
    7. Видихи
    8. З того берега
    9. Я без тебе не є
    10. Одвічний листопад
    11. Якби
    12. Біла колискова\Bela uspavanka
log
Exact Audio Copy V0.99 prebeta 5 from 4. May 2009

EAC extraction logfile from 30. December 2010, 10:14

Росава / Тепер і потім

Used drive : HL-DT-STDVDRAM GH22NS40 Adapter: 5 ID: 0

Read mode : Secure
Utilize accurate stream : Yes
Defeat audio cache : Yes
Make use of C2 pointers : No

Read offset correction : 667
Overread into Lead-In and Lead-Out : No
Fill up missing offset samples with silence : Yes
Delete leading and trailing silent blocks : No
Null samples used in CRC calculations : Yes
Used interface : Installed external ASPI interface

Used output format : User Defined Encoder
Selected bitrate : 768 kBit/s
Quality : High
Add ID3 tag : No
Command line compressor : C:\Program Files\Exact Audio Copy\Flac\flac.exe
Additional command line options : -8 -V -T "ARTIST=%a" -T "TITLE=%t" -T "ALBUM=%g" -T "DATE=%y" -T "TRACKNUMBER=%n" -T "GENRE=%m" -T "COMMENT=%e" %s -o %d

TOC of the extracted CD

Track | Start | Length | Start sector | End sector
---------------------------------------------------------
1 | 0:00.00 | 3:16.74 | 0 | 14773
2 | 3:16.74 | 3:17.18 | 14774 | 29566
3 | 6:34.17 | 3:21.28 | 29567 | 44669
4 | 9:55.45 | 3:25.28 | 44670 | 60072
5 | 13:20.73 | 3:09.69 | 60073 | 74316
6 | 16:30.67 | 3:48.56 | 74317 | 91472
7 | 20:19.48 | 3:05.32 | 91473 | 105379
8 | 23:25.05 | 3:43.60 | 105380 | 122164
9 | 27:08.65 | 3:59.60 | 122165 | 140149
10 | 31:08.50 | 4:10.56 | 140150 | 158955
11 | 35:19.31 | 3:55.09 | 158956 | 176589
12 | 39:14.40 | 2:47.65 | 176590 | 189179

Range status and errors

Selected range

Filename E:\1EAC Rip\Росава - Тепер і потім (2009)\Росава - Тепер і потім.wav

Peak level 100.0 %
Range quality 99.9 %
Copy CRC 24236198
Copy OK

No errors occurred

AccurateRip summary

Track 1 not present in database
Track 2 not present in database
Track 3 not present in database
Track 4 not present in database
Track 5 not present in database
Track 6 not present in database
Track 7 not present in database
Track 8 not present in database
Track 9 not present in database
Track 10 not present in database
Track 11 not present in database
Track 12 not present in database

None of the tracks are present in the AccurateRip database

End of status report
TA
Тривалість: 00:42:02
Мова: українська (1-12), сербська (12)
Аудіо-кодек: FLAC
Бітрейт: 861 кб/с
Джерело: інший трекер
Додаткова інформація:
Є музиканти, які розповідають про зміни, еволюцію власної творчості. І є інші – музиканти. Які справді еволюціонують – може, тому, що займаються не так барвистими розмовами, як улюбленою справою. Ви бачите зараз вже четвертий альбом, який виходить з ім’ям Росави на обкладинці – і він знову геть не схожий на всі попередні. Втім, дещо спільне таки є: це знову – здорово (тут випливає, до речі, й окремий реверанс у бік мешканців студії "Кофеїн" і Ко). Особистий досвід: доки альбом "Тепер і потім" звучить, зовсім не можу про нього розповідати, бо починаю просто слухати, і всі слова кудись зникають. Попри те, що вже прослухав його кілька разів нон-стоп. Гарно... Якби вся українська поп-музика трималася такого рівня – слово "попса", напевно, швидко зникло би з нашої мови. Навіть якщо не вникати у тексти альбому – втім, це навряд чи реально, бо дослухатися і варто, і просто хочеться. І не до якихось окремих пісень, а до кожної. Коли ж почуєш, відчуєш хоча б частину тамтешніх віддзеркалень – остаточно переконуєшся в тому, що це нетривіальна поп-музика. Замість конвеєрного "швидкий успіх – надшвидке забуття" тут втілюється естетика красивих почуттів і чесних, неудаваних роздумів. Не заголосно говорю? Емоційна й розумна, але напрочуд легка, насичена світлом – ось вона, ця музика. Тепер. І, думається мені, потім – також...




Якщо Ви справді бажаєте підтримати українське - після прослуховування, якщо музика вам сподобалась,
придбайте ліцензійний диск.
Підтримаймо вітчизняних виконавців!


Срібний реліз (на рейтинг впливає 50% завантаженого)
 Трекер:    Зареєстрований   

Завантажити / скачати українську музику



відео для новачків



 Зареєстрований:   2011-01-18 01:39
 Розмір:   261 MB 
 Оцінка музики:   8.3/10 (Голосів: 17)
   
sergiyko 
Забанено
Забанено


З нами з: 17.06.08
Востаннє: 13.10.13
Повідомлень: 259

2011-01-18 23:18  
Дякую, давно шукаю в якості.
natashelka 
VIP


З нами з: 23.05.10
Востаннє: 09.12.16
Повідомлень: 441

2011-09-12 00:50  
Росава ти молодчинка! твої роботи зараз сентиментальніші, глибші та змістовніші, ніж у Ані Лорак! Добре що ти є у нас! Тепер і потім надзвичайно зрілий у музичному плані альбом. Пісня видихи чіпляє за живе так, що розумієш - дівчина може плакати не лише від французького мила, що потрапляє їй у очіCry (1)
Ваш часовий пояс: GMT + 2 Години

Нова тема   Відповісти