Завантажити та скачати торренти українською


ILLARIA - Вільна (2010) [FLAC] | Neo Folk / Ethno-Pop

Нові коментарі

Нова тема   Відповісти
Автор Повідомлення
ssTAss 
Модератор музики


З нами з: 05.07.08
Востаннє: 10.12.16
Повідомлень: 10953

2011-01-16 15:16  
ILLARIA - Вільна (2010) [FLAC] | Neo Folk / Ethno-Pop



Стиль: Neo Folk, Ethno-Pop
Країна, місто: Україна, Київ
Сайти: Офіційний сайт
Видавець: Rostok Records
Виконавці:
ILLARIA


ILLАRІА – (назва пишеться у верхньому регістрі) самобутній музичний проект, що випромінює драйвом первинно чистого еросу у спектрі новітньої поп-культури.

Архітектором ідеї є дівчина, що має яскраво-руде волосся, грецьке коріння та навички спілкування мовою квітів. Джерелом натхнення визнає палаюче сонце, умовою існування – вогняну стихію. В пошуках животворчого світила дивачка блукає небезпечно крутими сходами, адже відчуває тяжіння виключно до його енергій. Здатність бачити справжнє обличчя надземного тіла навчило її переховувати його імена в своєму – Ілларіа.

Етно-проект ILLАRІА почав існування 2006 року із записом треку «Вільна». Рік по тому, 13 грудня відбулася презентація дебютного промо-диску «Рано». Артова суміш різнохарактерних за стилістикою та саундом творів стала спробою віддзеркалити автентичні глибини сучасної екзистенції. Сповідальна відвертість вокальної пластики, що перетинає межі містичного поєдналась в естетиці специфічного етно-попу. Всупереч мейнстрімовим канонам, пісні одразу потрапили до ротації на багатьох FM-станціях.

Наприкінці 2008-го, однойменний авторський проект Ілларії, що досі існував лише у сольному форматі, нарешті почав перетворюватися на живу команду. Наразі ILLАRІА об’єднує п`ятьох молодих та досвідчених музикантів. Колектив успішно концертує
Пісні:
    01 - Intro
    02 - ILLARIA
    03 - Падай
    04 - Свічадо
    05 - Світ мій
    06 - Грім
    07 - Засинай
    08 - Вільна
    09 - Долиною
    10 - Рано
    11 - Я літаю
    12 - Чого ж мені сумно
    13 - Відьма
    14 - Небо
    15 - Ой верше, мій верше
log
Exact Audio Copy V0.99 prebeta 5 from 4. May 2009

EAC extraction logfile from 18. December 2010, 12:30

ILLARIA / Вільна

Used drive : SONY DVD RW AW-G170A Adapter: 0 ID: 0

Read mode : Secure
Utilize accurate stream : Yes
Defeat audio cache : Yes
Make use of C2 pointers : No

Read offset correction : 48
Overread into Lead-In and Lead-Out : No
Fill up missing offset samples with silence : Yes
Delete leading and trailing silent blocks : No
Null samples used in CRC calculations : Yes
Used interface : Native Win32 interface for Win NT & 2000
Gap handling : Appended to previous track

Used output format : User Defined Encoder
Selected bitrate : 128 kBit/s
Quality : High
Add ID3 tag : No
Command line compressor : E:\Program Files\Exact Audio Copy\Flac\flac.exe
Additional command line options : -8 -V %s

TOC of the extracted CD

Track | Start | Length | Start sector | End sector
---------------------------------------------------------
1 | 0:00.00 | 1:04.18 | 0 | 4817
2 | 1:04.18 | 5:05.59 | 4818 | 27751
3 | 6:10.02 | 3:12.69 | 27752 | 42220
4 | 9:22.71 | 4:22.56 | 42221 | 61926
5 | 13:45.52 | 3:53.45 | 61927 | 79446
6 | 17:39.22 | 3:49.13 | 79447 | 96634
7 | 21:28.35 | 4:02.45 | 96635 | 114829
8 | 25:31.05 | 3:39.55 | 114830 | 131309
9 | 29:10.60 | 3:25.24 | 131310 | 146708
10 | 32:36.09 | 3:55.47 | 146709 | 164380
11 | 36:31.56 | 3:20.64 | 164381 | 179444
12 | 39:52.45 | 4:36.23 | 179445 | 200167
13 | 44:28.68 | 3:58.46 | 200168 | 218063
14 | 48:27.39 | 3:50.25 | 218064 | 235338
15 | 52:17.64 | 2:30.52 | 235339 | 246640

Track 1

Filename I:\LOSSLESS\(AAA-01)\ILLARIA - 2010 - Вільна\01. ILLARIA - Intro.wav

Pre-gap length 0:00:02.00

Peak level 99.9 %
Track quality 100.0 %
Test CRC 39DBAE35
Copy CRC 39DBAE35
Track not present in AccurateRip database
Copy OK

Track 2

Filename I:\LOSSLESS\(AAA-01)\ILLARIA - 2010 - Вільна\02. ILLARIA - ILLARIA.wav

Peak level 99.9 %
Track quality 100.0 %
Test CRC D0BBBB55
Copy CRC D0BBBB55
Track not present in AccurateRip database
Copy OK

Track 3

Filename I:\LOSSLESS\(AAA-01)\ILLARIA - 2010 - Вільна\03. ILLARIA - Падай.wav

Pre-gap length 0:00:02.00

Peak level 99.9 %
Track quality 99.9 %
Test CRC 92627ADC
Copy CRC 92627ADC
Track not present in AccurateRip database
Copy OK

Track 4

Filename I:\LOSSLESS\(AAA-01)\ILLARIA - 2010 - Вільна\04. ILLARIA - Свічадо.wav

Pre-gap length 0:00:02.00

Peak level 99.9 %
Track quality 100.0 %
Test CRC C1E15CB9
Copy CRC C1E15CB9
Track not present in AccurateRip database
Copy OK

Track 5

Filename I:\LOSSLESS\(AAA-01)\ILLARIA - 2010 - Вільна\05. ILLARIA - Світ мій.wav

Pre-gap length 0:00:02.00

Peak level 99.9 %
Track quality 100.0 %
Test CRC 20E62854
Copy CRC 20E62854
Track not present in AccurateRip database
Copy OK

Track 6

Filename I:\LOSSLESS\(AAA-01)\ILLARIA - 2010 - Вільна\06. ILLARIA - Грім.wav

Pre-gap length 0:00:02.00

Peak level 99.9 %
Track quality 100.0 %
Test CRC FD843BCA
Copy CRC FD843BCA
Track not present in AccurateRip database
Copy OK

Track 7

Filename I:\LOSSLESS\(AAA-01)\ILLARIA - 2010 - Вільна\07. ILLARIA - Засинай.wav

Pre-gap length 0:00:02.00

Peak level 99.9 %
Track quality 100.0 %
Test CRC C11A3838
Copy CRC C11A3838
Track not present in AccurateRip database
Copy OK

Track 8

Filename I:\LOSSLESS\(AAA-01)\ILLARIA - 2010 - Вільна\08. ILLARIA - Вільна.wav

Pre-gap length 0:00:02.00

Peak level 99.9 %
Track quality 100.0 %
Test CRC 98D2D9AC
Copy CRC 98D2D9AC
Track not present in AccurateRip database
Copy OK

Track 9

Filename I:\LOSSLESS\(AAA-01)\ILLARIA - 2010 - Вільна\09. ILLARIA - Долиною.wav

Pre-gap length 0:00:02.00

Peak level 99.9 %
Track quality 99.7 %
Test CRC 98BDBDA0
Copy CRC 98BDBDA0
Track not present in AccurateRip database
Copy OK

Track 10

Filename I:\LOSSLESS\(AAA-01)\ILLARIA - 2010 - Вільна\10. ILLARIA - Рано.wav

Pre-gap length 0:00:02.00

Peak level 99.9 %
Track quality 100.0 %
Test CRC 9FF101E1
Copy CRC 9FF101E1
Track not present in AccurateRip database
Copy OK

Track 11

Filename I:\LOSSLESS\(AAA-01)\ILLARIA - 2010 - Вільна\11. ILLARIA - Я літаю.wav

Pre-gap length 0:00:02.00

Peak level 99.9 %
Track quality 100.0 %
Test CRC 07DC13D4
Copy CRC 07DC13D4
Track not present in AccurateRip database
Copy OK

Track 12

Filename I:\LOSSLESS\(AAA-01)\ILLARIA - 2010 - Вільна\12. ILLARIA - Чого ж мені сумно.wav

Pre-gap length 0:00:02.00

Peak level 99.9 %
Track quality 100.0 %
Test CRC D64C1F08
Copy CRC D64C1F08
Track not present in AccurateRip database
Copy OK

Track 13

Filename I:\LOSSLESS\(AAA-01)\ILLARIA - 2010 - Вільна\13. ILLARIA - Відьма.wav

Pre-gap length 0:00:02.00

Peak level 99.9 %
Track quality 100.0 %
Test CRC 19080785
Copy CRC 19080785
Track not present in AccurateRip database
Copy OK

Track 14

Filename I:\LOSSLESS\(AAA-01)\ILLARIA - 2010 - Вільна\14. ILLARIA - Небо.wav

Pre-gap length 0:00:02.00

Peak level 99.9 %
Track quality 100.0 %
Test CRC 91EFB68B
Copy CRC 91EFB68B
Track not present in AccurateRip database
Copy OK

Track 15

Filename I:\LOSSLESS\(AAA-01)\ILLARIA - 2010 - Вільна\15. ILLARIA - Ой верше, мій верше.wav

Pre-gap length 0:00:02.00

Peak level 99.9 %
Track quality 100.0 %
Test CRC 32E4D6F0
Copy CRC 32E4D6F0
Track not present in AccurateRip database
Copy OK

None of the tracks are present in the AccurateRip database

No errors occurred

End of status report
fooCDtect
Тривалість: 00:54:49
Мова: українська
Аудіо-кодек: FLAC
Бітрейт: 740 - 1019 кб/с
Джерело: інший трекер
Додаткова інформація:
"Вільна" – так звучить назва дебютного альбому української співачки ILLARIA. Дівчини з надзвичайним голосом та унікальною виконавською манерою. Її ім’я з грецької мови перекладається як "Та, що несе світло", її життєве кредо – "Бути Вільною означає бути собою!". Стилістика дебютного альбому українки з еллінським корінням виходить далеко за межі конкретного музичного напрямку. В своїй музиці ILLARIA поєднує елементи world music, new age та арт-поп-року. Результатом творчих експериментів стало написання низки творів, 15-ть з яких увійшли до платівки – це авторські композиції та дві кавер-версії старовинних українських пісень. Рекординг альбому відбувся на провідних київських студіях, до запису також долучилися відомі київські музиканти: Олександр Мілов, Костянтин Сухоносов, Антон Бєлко, Таня Ша, Микола Кірсанов, Антон Корольов, Дмитро Данов, Анатолій Гаврилов та інші, а також постійні музиканти проекту ILLARIA: Олександр Ганжа, Іван Сергєєв та Микола Ногай. Окремої уваги заслуговує ексклюзивне оформлення диску від Яни Антонець та Володимира Гавриша.

Дебютний сольний альбом ILLARIA "Вільна" може по праву зайняти гідне місце в сучасній українській музичній культурі. Композиції з цієї платівки створюють особливу атмосферу польоту, що захоплює душу, дивує розум і зворушує серце. Ця музика вільна від будь-яких умовностей чи стереотипів, вона дарує відчуття свободи і щастя.




Якщо Ви справді бажаєте підтримати українське - після прослуховування, якщо музика вам сподобалась,
придбайте ліцензійний диск.
Підтримаймо вітчизняних виконавців!


Срібний реліз (на рейтинг впливає 50% завантаженого)
 Трекер:    Зареєстрований   

Завантажити / скачати українську музику



відео для новачків



 Зареєстрований:   2011-01-16 15:16
 Розмір:   352 MB 
 Оцінка музики:   9.2/10 (Голосів: 35)
   
ssTAss 
Модератор музики


З нами з: 05.07.08
Востаннє: 10.12.16
Повідомлень: 10953

2011-01-16 15:21  

Tarasyk 
Відео Гуртом - фільмокрай
Відео Гуртом - фільмокрай


З нами з: 26.08.09
Востаннє: 10.12.16
Повідомлень: 5974

2011-01-16 15:34  
ssTAss, не знаю, як в тебе, але в мене дуже криво відображається інфа про виконавицю.
Може щось із тим вдієш? Надто велике перше фото, тому друге десь внизу теліпається...

ssTAss 
Модератор музики


З нами з: 05.07.08
Востаннє: 10.12.16
Повідомлень: 10953

2011-01-16 15:37  
Tarasyk написано:
Надто велике перше фото, тому друге десь внизу теліпається...

так задумано)

Tarasyk 
Відео Гуртом - фільмокрай
Відео Гуртом - фільмокрай


З нами з: 26.08.09
Востаннє: 10.12.16
Повідомлень: 5974

2011-01-16 15:38  
О! Зараз перша фотка взагалі не відображається.
ssTAss 
Модератор музики


З нами з: 05.07.08
Востаннє: 10.12.16
Повідомлень: 10953

2011-01-16 15:42  
Tarasyk, досить флудити)))
все відображається, перевіряв декілька раз
*куки-шмуки-браузер* чи мені вас вчити?

Lev 
VIP


З нами з: 14.10.09
Востаннє: 09.12.16
Повідомлень: 1819

2011-01-16 22:08  
дуже цікавий проект, і надзвичайна вокалістка!
мав щастя чути наживо і спілкуватись

Додано через 19 хвилин 4 секунди:

до речі, був час як вона співала в Natural Spirit

Додано через 24 хвилини 21 секунду:
а ця фотка для тих, хто ще не закохався Happy

Воїн 
Відео Гуртом - дизайнер
Відео Гуртом - дизайнер


З нами з: 30.06.08
Востаннє: 05.12.16
Повідомлень: 1130

2011-12-02 00:58  
тягну.
Щойно почув пісню "Грім" у і даному випадку з цим пов"язані дуже приємні події =)

Пісня дуже шороша.
мп3 буде?Хочеться і на плеєр закинути...Хочаруки з потрібногомісця ростуть. Спробую ісампереконвертувати.

ssTAss спасибі за реліз

Viktor Kit 
Частий відвідувач


З нами з: 20.07.11
Востаннє: 12.04.13
Повідомлень: 46

2012-02-13 11:16  
Чи можна формат МР3?
Будь ласка...

ЯК З FLAC НА МР3 ПЕРЕФОРМАТУВАТИ?

ssTAss 
Модератор музики


З нами з: 05.07.08
Востаннє: 10.12.16
Повідомлень: 10953

2012-02-13 22:46  
тут потрековий флак, тому будь-який (ну, майже) конвертор справиться
навіть онлайн
http://www.online-convert.com/

Viktor Kit 
Частий відвідувач


З нами з: 20.07.11
Востаннє: 12.04.13
Повідомлень: 46

2012-02-14 21:11  
Дякую Вам, пане ssTAss за конвертор.
usb22swl 
VIP


З нами з: 17.06.08
Востаннє: 09.12.16
Повідомлень: 386

2012-04-01 18:42  
За звичай не слухаю такої музики.
Нині прочитав про цю співачку в Контрапункті і вирішив послухати, що то за музика.

Хоч таку музику й не слухаю та ILLARIA вельми сподобалась.

кашкет 
Новенький


З нами з: 16.01.11
Востаннє: 18.08.14
Повідомлень: 1

2012-04-06 13:08  
я просто закохавця в цю музику - шикарно .раджу всім
flacmusic 
Новенький


З нами з: 13.02.10
Востаннє: 30.10.13
Повідомлень: 1

2012-04-15 23:05  
Шановнi пiдскажiть де купити оригiнальний диск?
Гарно дякую. Бажано онлайн..

ssTAss 
Модератор музики


З нами з: 05.07.08
Востаннє: 10.12.16
Повідомлень: 10953

2012-04-16 13:06  
flacmusic написано:
Шановнi пiдскажiть де купити оригiнальний диск?

ось
http://www.umka.com.ua/ukr/catalogue/ethno-pop/illaria-vil-na-digi-pack-free.html

tak_tse_ya 
Оцифрування книг Гуртом
Оцифрування книг Гуртом


З нами з: 12.04.11
Востаннє: 11.11.16
Повідомлень: 141

2012-05-24 01:29  
Як слухати формат .flac?
musicfan 
Модератор музики


З нами з: 27.01.09
Востаннє: 09.12.16
Повідомлень: 893

2012-05-24 07:28  
tak_tse_ya написано:
Як слухати формат .flac?

Аудіо в форматах Lossless - інструкція користування

OSTERLAND 
Новенький


З нами з: 02.06.11
Востаннє: 29.07.13
Повідомлень: 2

2013-01-13 23:42  
Голос неймовірний !
Ваш часовий пояс: GMT + 2 Години

Нова тема   Відповісти