Завантажити та скачати торренти українською


Квартет Явір - Чуєш, брате мій. 1967-1973 (2009) [FLAC] | A capella / Folk / Ethno

Нові коментарі

Нова тема   Відповісти
Автор Повідомлення
romkop 
Новенький


З нами з: 26.05.09
Востаннє: 08.12.16
Повідомлень: 9

2011-01-16 02:04  
Квартет Явір - Чуєш, брате мій. 1967-1973 (2009) [FLAC] | A capella / Folk / Ethno


Стиль: Folk Ethno
Країна, місто: Україна, Київ
Сайти: Офіційний сайт
Видавець: UKRmusic
Виконавці:
Володимир Дідух (баритон)
Валентин Реус (бас)
Ігор Борткo (тенор 1)
Євген Ігнатов (тенор 2)
Пісні:
    1. Чуєш, брате, мій
    2. Ніч яка місячна
    3. По садочку ходжу
    4. Невдале залицяння
    5. Ставок заснув
    6. Із сиром пироги
    7. Чорногоро, чорногоро
    8. Гуцулка Ксеня
    9. Вечірня пісня
    10. Тихо над річкою
    11. Летять, ніби чайки
Вміст лог-файлу

This log is created by Rubyripper, version 0.6.0
Website: http://code.google.com/p/rubyripper

Cdrom player used to rip:
Optiarc DVD RW AD-7560A DX06
Cdrom offset used: 6

Ripper used: cdparanoia
Matches required for all chunks: 2
Matches required for erroneous chunks: 2

Codec(s) used:
-flac -> --best -V (flac 1.2.1)

CDDB INFO

Artist = Квартет \"Явір\"
Album = Чуєш, брате мій. 1967-73 роки
Year = 2009
Genre = Folk
Tracks = 11 (11 selected)

01 - Чуєш, брате мій
02 - Ніч яка місячна
03 - По садочку ходжу
04 - Невдале залицяння (віночок українських народних пісень)
05 - Ставок заснув
06 - Із сиром пироги
07 - Чорногоро, чорногоро
08 - Гуцулка Ксеня
09 - Вечірня пісня
10 - Тихо над річкою
11 - Летять, ніби чайки

ADVANCED TOC ANALYSIS (with cdrdao)
...please be patient, this may take a while

No pregaps, silences or pre-emphasis detected

STATUS

Starting to rip track 1, trial #1 (62 seconds)
Starting to rip track 1, trial #2 (57 seconds)
Analyzing files for mismatching chunks
Every chunk matched 2 times Happy
MD5 sum: c100c764ed6a01de6a359bd8b25e8f67

Starting to rip track 2, trial #1 (38 seconds)
Starting to rip track 2, trial #2 (34 seconds)
Analyzing files for mismatching chunks
Every chunk matched 2 times Happy
MD5 sum: ec3a431f06c4f75a14a8a0ad7c59f43b

Starting to rip track 3, trial #1 (47 seconds)
Starting to rip track 3, trial #2 (43 seconds)
Analyzing files for mismatching chunks
Every chunk matched 2 times Happy
MD5 sum: 1f321f2066aab4fb050a2d48be38f9de

Starting to rip track 4, trial #1 (37 seconds)
Starting to rip track 4, trial #2 (32 seconds)
Analyzing files for mismatching chunks
Every chunk matched 2 times Happy
MD5 sum: 039c2b31aa3f72ee07415d8444e98a50

Starting to rip track 5, trial #1 (32 seconds)
Starting to rip track 5, trial #2 (28 seconds)
Analyzing files for mismatching chunks
Every chunk matched 2 times Happy
MD5 sum: 6e3eb6230ac0b72b80d438c4bd4f9a0b

Starting to rip track 6, trial #1 (34 seconds)
Starting to rip track 6, trial #2 (29 seconds)
Analyzing files for mismatching chunks
Every chunk matched 2 times Happy
MD5 sum: 08cb52ed6008416971f11ea3f7caea82

The drive is spinning for more than 30 minutes.
Taking a timeout of 2 minutes to protect the hardware.
Starting to rip track 7, trial #1 (25 seconds)
Starting to rip track 7, trial #2 (21 seconds)
Analyzing files for mismatching chunks
Every chunk matched 2 times Happy
MD5 sum: a2e3d356e4c37d64504acae9f4877b71

Starting to rip track 8, trial #1 (42 seconds)
Starting to rip track 8, trial #2 (38 seconds)
Analyzing files for mismatching chunks
Every chunk matched 2 times Happy
MD5 sum: 4c20777f6d23873a8f0d853f6a9081dd

Starting to rip track 9, trial #1 (39 seconds)
Starting to rip track 9, trial #2 (34 seconds)
Analyzing files for mismatching chunks
Every chunk matched 2 times Happy
MD5 sum: f342c0ec68d1144b1a5bde8f65fae30d

Starting to rip track 10, trial #1 (25 seconds)
Starting to rip track 10, trial #2 (20 seconds)
Analyzing files for mismatching chunks
Every chunk matched 2 times Happy
MD5 sum: 2858a2bd77c763f5b2c3b303ca7ee1ec

Starting to rip track 11, trial #1 (32 seconds)
Starting to rip track 11, trial #2 (27 seconds)
Analyzing files for mismatching chunks
Every chunk matched 2 times Happy
MD5 sum: 1dcb34179a746d98595e8cc47742b17a

RIPPING SUMMARY

All chunks were tried to match at least 2 times.
None of the tracks gave any problems
.CUE-файл

REM GENRE Folk
REM DATE 2009
REM COMMENT "Rubyripper 0.6.0"
REM DISCID 8d08ab0b
REM FREEDB_QUERY "8d08ab0b 11 150 19415 31419 49194 63281 76297 89967 100575 120438 138730 150452 2221"
PERFORMER "Квартет \"Явір\""
TITLE "Чуєш, брате мій. 1967-73 роки"
FILE "01 - Чуєш, брате мій.flac" WAVE
TRACK 01 AUDIO
TITLE "Чуєш, брате мій"
PERFORMER "Квартет \"Явір\""
INDEX 01 00:00:00
FILE "02 - Ніч яка місячна.flac" WAVE
TRACK 02 AUDIO
TITLE "Ніч яка місячна"
PERFORMER "Квартет \"Явір\""
INDEX 01 00:00:00
FILE "03 - По садочку ходжу.flac" WAVE
TRACK 03 AUDIO
TITLE "По садочку ходжу"
PERFORMER "Квартет \"Явір\""
INDEX 01 00:00:00
FILE "04 - Невдале залицяння (віночок українських народних пісень).flac" WAVE
TRACK 04 AUDIO
TITLE "Невдале залицяння (віночок українських народних пісень)"
PERFORMER "Квартет \"Явір\""
INDEX 01 00:00:00
FILE "05 - Ставок заснув.flac" WAVE
TRACK 05 AUDIO
TITLE "Ставок заснув"
PERFORMER "Квартет \"Явір\""
INDEX 01 00:00:00
FILE "06 - Із сиром пироги.flac" WAVE
TRACK 06 AUDIO
TITLE "Із сиром пироги"
PERFORMER "Квартет \"Явір\""
INDEX 01 00:00:00
FILE "07 - Чорногоро, чорногоро.flac" WAVE
TRACK 07 AUDIO
TITLE "Чорногоро, чорногоро"
PERFORMER "Квартет \"Явір\""
INDEX 01 00:00:00
FILE "08 - Гуцулка Ксеня.flac" WAVE
TRACK 08 AUDIO
TITLE "Гуцулка Ксеня"
PERFORMER "Квартет \"Явір\""
INDEX 01 00:00:00
FILE "09 - Вечірня пісня.flac" WAVE
TRACK 09 AUDIO
TITLE "Вечірня пісня"
PERFORMER "Квартет \"Явір\""
INDEX 01 00:00:00
FILE "10 - Тихо над річкою.flac" WAVE
TRACK 10 AUDIO
TITLE "Тихо над річкою"
PERFORMER "Квартет \"Явір\""
INDEX 01 00:00:00
FILE "11 - Летять, ніби чайки.flac" WAVE
TRACK 11 AUDIO
TITLE "Летять, ніби чайки"
PERFORMER "Квартет \"Явір\""
INDEX 01 00:00:00
Тривалість: 00:36:59
Мова: українська
Аудіо-кодек: FLAC
Бітрейт: 643 кб/с
Джерело: Оригінальний диск
Додаткова інформація:
"Біля затоки Дніпра, на київській "Венеції" – Русанівці, четверо чоловіків cпівали на весь голос. Над білими будинками, понад хвилями, далеко-далеко линула пісня. Євген Ігнатов, Микола Гуменюк, Володимир Дідух та Валентин Реус. 8 серпня 1966 року почалася спільна біографія чоловічого вокального квартету, який згодом прибрав поетичне ім’я "Явір" від срібнолистого дерева, оспіваного у народних піснях та легендах. Цілком зрозуміло, що хороший співак – це, перш за все, красивий, сильний голос. Але для справжнього артиста самого тільки голосу – замало. Артистичність, манера виконання, високий мистецький смак у доборі репертуару, любов до народної творчості і тактовне використання її – без цих якостей навіть володар дуже сильного голосу не може називатися справжнім співаком.

Зараз "Явору" 43 роки, в багатьох концертних залах нашої країни та за її межами виступає цей квартет. Завжди – майстерно, завжди – з успіхом.

На цьому диску звучать записи першого складу "Явора", запис 1967-71рр."

(інформація з офіційного прес-релізу)


Якщо Ви справді бажаєте підтримати українське - після прослуховування, якщо музика вам сподобалась, придбайте ліцензійний диск. Підтримаймо вітчизняних виконавців!


Срібний реліз (на рейтинг впливає 50% завантаженого)
 Трекер:    Зареєстрований   

Завантажити / скачати українську музику



відео для новачків



 Зареєстрований:   2011-01-16 02:04
 Розмір:   162 MB 
 Оцінка музики:   10/10 (Голосів: 8)
   
ssTAss 
Модератор музики


З нами з: 05.07.08
Востаннє: 09.12.16
Повідомлень: 10948

2011-01-16 03:32  
поставив обкладинку кращої якості
десь була ще ліпшої, але зараз немає змоги шукати Wide grin
хоча у Вас ж є диск, то може колись можна сподіватись і на скани, нє?

67maximov 
Частий відвідувач


З нами з: 06.10.10
Востаннє: 02.12.16
Повідомлень: 26

2012-08-27 07:44  
На цьому диску другий тенор - Микола Гуменюк, але аж ніяк не Ігор Борко. Борко дійсно деякий час співав у складі "Явора", але це було у 2000-х.
Ваш часовий пояс: GMT + 2 Години

Нова тема   Відповісти