Завантажити та скачати торренти українською


РЕД / Red (2010) 1080p Ukr/Eng | Sub Ukr/Eng

Нові коментарі

Нова тема   Відповісти
Автор Повідомлення
Kuzmenko 
Відео Гуртом - команда HD
Відео Гуртом - команда HD


З нами з: 02.02.10
Востаннє: 03.12.16
Повідомлень: 144

2011-01-14 13:28  
РЕД / Red (2010) 1080p Ukr/Eng | Sub Ukr/Eng



Жанр: бойовик, комедія
Країна: США



Кіностудія / кінокомпанія: Summit Entertainment, Di Bonaventura Pictures, DC Entertainment
Режисер: Роберт Швентке
Актори: Брюс Вілліс, Марі-Луїз Паркер, Морган Фріман, Джон Малкович, Хелен Міррен

Сюжет:
Екс-агент ЦРУ Френк Мозес (Брюс Вілліс), що живе тихим і спокійним життям, несподівано стає об'єктом полювання організації, в якій прослужив багато років. Намагаючись з'ясувати, що ж стоїть за замахом на його життя, Френк звертається по допомогу до своїх колишніх колег-товаришів по службі. Незважаючи на поважний вік, герої фільму збираються довести, що у них ще є порох у порохівницях.


Тривалість: 01:51:09
Якість:
Відео:
кодек:
розмір кадру: 1920 х 800
бітрейт: 9 592 кб/с

Аудіо # 1:
мова: українська
переклад: професійний дубльований
кодек: 5.1
бітрейт: 384 кб/с [Line]
Файл буде перезалито при виході кращої озвучки...


Аудіо # 2:
мова: англійська
переклад: оригінал
кодек: 5.1
бітрейт: 640 кб/с

Субтитри:
мова: українська
тип: програмні (м'які)

Субтитри:
мова: англійська
тип: програмні (м'які)
Скріншоти

MediaInfo

General
Complete name : H:\Downloads\Релізи\[Hurtom.com]\Red (2010) 1080p Ukr,Eng.Sub-Ukr,Eng[Hurtom].mkv
Format : Matroska
File size : 8.24 GiB
Duration : 1h 51mn
Overall bit rate : 10.6 Mbps
Movie name : Red (2010) 1080p Ukr,Eng.Sub-Ukr,Eng[Hurtom]
Encoded date : UTC 2011-01-14 09:42:13
Writing application : mkvmerge v4.3.0 ('Escape from the Island') збірка від Sep 5 2010 10:30:51
Writing library : libebml v1.0.0 + libmatroska v1.0.0

Video
ID : 1
Format : AVC
Format/Info : Advanced Video Codec
Format profile : [email protected]
Format settings, CABAC : Yes
Format settings, ReFrames : 5 frames
Muxing mode : Header stripping
Codec ID : V_MPEG4/ISO/AVC
Duration : 1h 51mn
Bit rate : 9 592 Kbps
Width : 1 920 pixels
Height : 800 pixels
Display aspect ratio : 2.40:1
Frame rate : 23.976 fps
Color space : YUV
Chroma subsampling : 4:2:0
Bit depth : 8 bits
Scan type : Progressive
Bits/(Pixel*Frame) : 0.260
Stream size : 7.28 GiB (88%)
Title : Red (2010) 1080p Ukr,Eng.Sub-Ukr,Eng[Hurtom]
Writing library : core 112 r1834 a51816a
Encoding settings : cabac=1 / ref=5 / deblock=1:0:0 / analyse=0x3:0x113 / me=umh / subme=7 / psy=1 / psy_rd=1.00:0.00 / mixed_ref=1 / me_range=16 / chroma_me=1 / trellis=1 / 8x8dct=1 / cqm=0 / deadzone=21,11 / fast_pskip=0 / chroma_qp_offset=-2 / threads=12 / sliced_threads=0 / nr=0 / decimate=1 / interlaced=0 / constrained_intra=0 / bframes=3 / b_pyramid=2 / b_adapt=1 / b_bias=0 / direct=1 / weightb=1 / open_gop=0 / weightp=2 / keyint=250 / keyint_min=23 / scenecut=40 / intra_refresh=0 / rc_lookahead=40 / rc=2pass / mbtree=1 / bitrate=9592 / ratetol=1.0 / qcomp=0.60 / qpmin=0 / qpmax=51 / qpstep=4 / cplxblur=20.0 / qblur=0.5 / ip_ratio=1.40 / aq=1:1.00
Language : English

Audio #1
ID : 2
Format : AC-3
Format/Info : Audio Coding 3
Mode extension : CM (complete main)
Muxing mode : Header stripping
Codec ID : A_AC3
Duration : 1h 51mn
Bit rate mode : Constant
Bit rate : 384 Kbps
Channel(s) : 6 channels
Channel positions : Front: L C R, Side: L R, LFE
Sampling rate : 48.0 KHz
Bit depth : 16 bits
Stream size : 305 MiB (4%)
Title : 5.1 @ 384 bps Українська - дубляж [Line звук]
Language : Ukrainian

Audio #2
ID : 3
Format : AC-3
Format/Info : Audio Coding 3
Mode extension : CM (complete main)
Muxing mode : Header stripping
Codec ID : A_AC3
Duration : 1h 51mn
Bit rate mode : Constant
Bit rate : 640 Kbps
Channel(s) : 6 channels
Channel positions : Front: L C R, Side: L R, LFE
Sampling rate : 48.0 KHz
Bit depth : 16 bits
Stream size : 509 MiB (6%)
Title : 5.1 @ 640 kbps Англійська - оригінал
Language : English

Text #1
ID : 4
Format : UTF-8
Codec ID : S_TEXT/UTF8
Codec ID/Info : UTF-8 Plain Text
Title : Українські повні
Language : Ukrainian

Text #2
ID : 5
Format : UTF-8
Codec ID : S_TEXT/UTF8
Codec ID/Info : UTF-8 Plain Text
Title : Англійські повні
Language : English
Джерело: &
Особиста оцінка: 10 - без зайвих вагань рекомендую всім!


 Трекер:    Зареєстрований   

Завантажити / скачати фільм українською



відео для новачків



 Зареєстрований:   2011-01-14 13:28
 Розмір:   8.24 GB 
 Оцінка фільму:   9.4/10 (Голосів: 15)
   
Інші релізи
   Замучений / The Tortured (2010) 1080p Ukr/Eng | Sub Eng ninenine  1 / 0   6.67 GB   2015-04-18 20:55 
   Замучений / The Tortured (2010) Ukr/Eng patriot2305  2 / 0   1.45 GB   2015-04-18 13:40 
   РЕД / Red (2010) Ukr/Eng | Sub Eng xslim  6 / 0   2.03 GB   2012-06-24 04:44 
3apa3a.... 
Частий відвідувач


З нами з: 01.10.09
Востаннє: 31.12.14
Повідомлень: 32

2011-01-14 15:48  
"Файл буде перезалито при виході кращої озвучки..."
І яка озвучка може бути кращою за "професійний дубльований"? Вказуйте, будь ласка, по людськи, щоб було зрозуміло, чи це дубляж, чи багатоголоска, лайн, чи з кам ріпу звук....
Або заливайте семпл. "Кота в мішку" качати не хочеться.
Я так зрадів, що дубляж... А тут таке.
З роздачу, звичайно ж, дякую)

Kuzmenko 
Відео Гуртом - команда HD
Відео Гуртом - команда HD


З нами з: 02.02.10
Востаннє: 03.12.16
Повідомлень: 144

2011-01-14 19:24  
Файл буде перезалито при виході озвучки 640 Кб/с... Тут звук Line...

Семпл залию за кілька хвилин...

Додано через 50 хвилин 27 секунд:

http://www.multiupload.com/NW7NXL6P5T

Vitaha94 
Частий відвідувач


З нами з: 23.03.09
Востаннє: 26.11.16
Повідомлень: 40

2011-01-19 23:59  
ВИкладіть будь-ласка окремо Укр. доріжку)
abodnya 
Відео Гуртом - фільмокрай
Відео Гуртом - фільмокрай


З нами з: 02.11.08
Востаннє: 07.12.16
Повідомлень: 5961

2011-01-20 00:08  
Kuzmenko написано:
Джерело: &

Гуртом & Чорна Ракетниця

Vitaha94 
Частий відвідувач


З нами з: 23.03.09
Востаннє: 26.11.16
Повідомлень: 40

2011-01-20 15:47  
Vitaha94 написано:
ВИкладіть будь-ласка окремо Укр. доріжку)

HacK 
Новенький


З нами з: 19.07.10
Востаннє: 11.11.16
Повідомлень: 23

2011-01-22 12:01  
де швидкість??... о_О
leromylis 
Новенький


З нами з: 01.01.10
Востаннє: 04.12.16
Повідомлень: 13

2011-01-22 21:09  
Kuzmenko
друже, а в торент важко залити? все одно золота роздача, все ж швидше стягнеться ніж зі всіляких аля рапід Happy

Kuzmenko 
Відео Гуртом - команда HD
Відео Гуртом - команда HD


З нами з: 02.02.10
Востаннє: 03.12.16
Повідомлень: 144

2011-01-22 21:13  
Ти просиш залити в торент - а прийде хтось інший і почне строчини - навіщо нам семпл коли ми і так казачуємо файл, ще лишні метри тратити....

мало хто буде закачувати лише фільм але багато хто видалить семл і вже не зможе роздавати - напише "немає файлу"...

Додано через 35 секунд:

я можу особисто скинути кому потрібен семп будь - яким з розумних способів....

HacK 
Новенький


З нами з: 19.07.10
Востаннє: 11.11.16
Повідомлень: 23

2011-03-12 21:41  
дайте будь ласка краще швидкість, толку з того торрента якщо швидкість 10 кб за секунду ..... =((((((
sojuz 
Новенький


З нами з: 03.05.08
Востаннє: 29.11.16
Повідомлень: 13

2011-03-19 22:10  
)) щось не те... 8,3 Гб. і на на швидкості 10Кб.....дійсно смішно!!
hellforces 
VIP


З нами з: 25.06.08
Востаннє: 11.11.16
Повідомлень: 1556

2011-03-19 23:06  
збожеволіти можна, на російській мові в усіх якостях є, а української нормальної ще досі нема, як так можна??
Kuzmenko 
Відео Гуртом - команда HD
Відео Гуртом - команда HD


З нами з: 02.02.10
Востаннє: 03.12.16
Повідомлень: 144

2011-03-19 23:09  
Ще наскільки мені відомо не виходив цей фільм з українською озвучкою.....

P.S: Я зайнятий навчанням і немає часу на проект покищо....

sojuz 
Новенький


З нами з: 03.05.08
Востаннє: 29.11.16
Повідомлень: 13

2011-03-19 23:12  
Дякую!! Швидкість тепер гідна!!!
sojuz 
Новенький


З нами з: 03.05.08
Востаннє: 29.11.16
Повідомлень: 13

2011-03-22 15:01  
Проблемний файл якийсь... "висне" експлорер віндовський. проблеми з відображенням іконок. Система чиста. Вірусів нема. Кодеки в порядку......... Видалив - все нормально. Потім знову закачав... ті ж самі проблеми
Kuzmenko 
Відео Гуртом - команда HD
Відео Гуртом - команда HD


З нами з: 02.02.10
Востаннє: 03.12.16
Повідомлень: 144

2011-03-22 15:05  
в мене стоїть касперський інтернет повна ліцензія..... вірусів не повинно бути

В тебе файлова система FAT можливо...

sojuz 
Новенький


З нами з: 03.05.08
Востаннє: 29.11.16
Повідомлень: 13

2011-03-22 16:50  
та ні.. NTFS. Інші фільми, теж "не маленькі", такі як "Хрещений батько" (11Гб) нормально відображаються. А цей, коли відкриваю "вікно" начебто хоче відобразити ескіз на цей фільм... і тут висне експлорер... чуйка, що в кодеках проблема... кодеки, до речі, Win7codecs_v278 стоять з 64 приблудою.... треба зараз K-Lite_Codec поставити... може "попустить"

Додано через 1 годину 15 хвилин 16 секунд:

Так і є. Кодеки балувались. Вибачаюсь!

Drool 
VIP


З нами з: 17.04.10
Востаннє: 10.12.16
Повідомлень: 1270

2011-06-07 15:54  
А нічого не чути - коли з'явиться нормальний звук, не Line?

P.S. І, будь-ласка, викладіть хоч цю доріжку окремо!

lanagreg 
Новенький


З нами з: 23.10.12
Востаннє: 09.12.16
Повідомлень: 17

2015-10-07 18:46  
...а окремо українськими субтитрами ніхто не може поділитись..?
Ваш часовий пояс: GMT + 2 Години

Нова тема   Відповісти