Завантажити та скачати торренти українською


Symfomania - Empire (2009) [APE] | Symphonic Rock

Нові коментарі

Нова тема   Відповісти
Останній раз роздавалося Seriy100293 (2016-11-30)
Автор Повідомлення
west 
Поважний учасник


З нами з: 03.03.09
Востаннє: 08.12.16
Повідомлень: 165

2011-01-13 16:53  
Symfomania - Empire (2009) [APE] | Symphonic Rock



Стиль: Symphonic Rock
Країна, місто: Україна, Київ
Сайти: Офіційний сайт

Видавець: 100% records
Виконавці:
Марина Лосицька - перша скрипка
Марія Бродова - друга скрипка
Валентина Буграк - альт
Ірина Шкулка - віолончель
Ольга Айдінова - клавішні
Вікторія Мілєвськая - барабани
Пісні:
    01. Геліос
    02. Дозор
    03. Свіча
    04. Вікторія
    05. Старовинна
    06. Віва
    07. Воїн
    08. Дощ
    09. Перегони
    10. Політ
    11. Полум'я
    12. Море
    13. Битва
    14. Марш
    15. Прелюдія
log:

Exact Audio Copy V0.99 prebeta 5 from 4. May 2009

EAC extraction logfile from 23. February 2011, 22:31

Symfomania / Empire

Used drive : ASUS DRW-1814BL Adapter: 0 ID: 0

Read mode : Secure
Utilize accurate stream : Yes
Defeat audio cache : Yes
Make use of C2 pointers : No

Read offset correction : 6
Overread into Lead-In and Lead-Out : No
Fill up missing offset samples with silence : Yes
Delete leading and trailing silent blocks : No
Null samples used in CRC calculations : Yes
Used interface : Native Win32 interface for Win NT & 2000

Used output format : Monkey's Audio Lossless Encoder
Selected bitrate : High Lossless Compression
Quality : High
Add ID3 tag : No
Command line compressor : C:\Program Files\Monkey's Audio\MAC.exe

TOC of the extracted CD

Track | Start | Length | Start sector | End sector
---------------------------------------------------------
1 | 0:00.00 | 3:53.57 | 0 | 17531
2 | 3:53.57 | 3:28.61 | 17532 | 33192
3 | 7:22.43 | 3:58.30 | 33193 | 51072
4 | 11:20.73 | 2:37.29 | 51073 | 62876
5 | 13:58.27 | 3:04.26 | 62877 | 76702
6 | 17:02.53 | 2:55.37 | 76703 | 89864
7 | 19:58.15 | 2:43.61 | 89865 | 102150
8 | 22:42.01 | 2:32.00 | 102151 | 113550
9 | 25:14.01 | 1:44.45 | 113551 | 121395
10 | 26:58.46 | 2:50.55 | 121396 | 134200
11 | 29:49.26 | 2:17.54 | 134201 | 144529
12 | 32:07.05 | 3:27.18 | 144530 | 160072
13 | 35:34.23 | 3:15.09 | 160073 | 174706
14 | 38:49.32 | 2:43.40 | 174707 | 186971
15 | 41:32.72 | 2:05.39 | 186972 | 196385

Range status and errors

Selected range

Filename C:\mactepok.moole.ru\Symfomania - Empire.wav

Peak level 100.0 %
Range quality 100.0 %
Test CRC EE92F980
Copy CRC EE92F980
Copy OK

No errors occurred

AccurateRip summary

Track 1 not present in database
Track 2 not present in database
Track 3 not present in database
Track 4 not present in database
Track 5 not present in database
Track 6 not present in database
Track 7 not present in database
Track 8 not present in database
Track 9 not present in database
Track 10 not present in database
Track 11 not present in database
Track 12 not present in database
Track 13 not present in database
Track 14 not present in database
Track 15 not present in database

None of the tracks are present in the AccurateRip database

End of status report
Тривалість: 00:43:33
Мова: Instrumental
Аудіо-кодек: APE
Бітрейт: 857 кб/с
Джерело: Ріп пана POMEO
Додаткова інформація:
Гурт Symfomania з'явився на основі класичного квартету, створеного студентками Музичної Академії ім.П.І.Чайковського.
Основу репертуару спочатку складали класичні твори і популярні мелодії, які дівчата виконували у власному аранжуванні. Квартет почав виступати під назвою "Імперія", оскільки це слово максимально передавало зміст, стиль, характер музики. Колектив існував як міні-держава, в якій усе робилося своїми силами, - самостійно писалися обробки, шилися костюми, робилися записи в домашній студії, вигадувалися власні твори.
У 2004 році відбулося знайомство з Олександром Мілєвським. Ще задовго до зустрічі з учасницями квартету Олександр був гаряче одержимий ідеєю реалізації подібного проекту. В особі нового керівника дівчата знайшли творчого однодумця, що узяв усі організаційні питання на себе.
Тепер в творчості групи акцент робиться саме на власні твори. Цей час пошуку свого стилю, свого "почерку" в музиці. Якщо раніше квартет грав без якого-небудь супроводу, то тепер нові твори вже припускали наявність аранжування. У свою чергу, це вплинуло на зміни і в сценічному стилі: з'являлися нові костюми, продумывались рухи на сцені, що допомагало створювати свій власний образ в цілому.
Проте у міру розвитку колективу ставало усе більш зрозуміло те, що комп'ютерне аранжування при усіх плюсах, ставить виконавця в певні рамки, обмежує можливість імпровізації. Усе це привело до того, що в листопаді 2005 у складі групи з'явилися ударник і піаністка.
Через декілька місяців спільної роботи затвердився основний склад групи :
Марина Лосицька - перша скрипка
Марія Бродова - друга скрипка
Валентина Буграк - альт
Ірина Шкулка - віолончель
Ольга Айдінова - клавішні
Вікторія Мілєвськая - барабани
У 2007 році, у зв'язку з приємними сімейними обставинами двох учасниць групи Марини Лосицької і Ірини Шкулко в колектив прийшли Вероніка Черняк і Дарина Сєдова.
Поява барабанів і клавішних відкрило нові можливості. Спочатку роль обох інструментів не розглядалася як "другорядно-фонове доповнення". На них покладалася функція рівноправних учасників колективу. З перших же репетицій в такому складі послідував інтенсивний, непростий, але цікавий період нових творчих пошуків і знахідок. В першу чергу це торкнулося стилю і характеру виконуваної музики : поєднання струнних інструментів з ударними і клавішними відкрило нове звучання - динамічніше, драйвове
Траплялося, що групу порівнювали з "Апокаліптикою", "Бондом". Але це - не більше ніж стереотип, викликаний схожістю інструментального складу. (Про всяк випадок варто уточнити, що "Symfomania" з належною повагою відноситься до творчості вищеназваних груп, проте в творчому плані жодним чином з ними не перетинається).
З моменту створення група виступала на багатьох престижних музичних фестивалях і концертах, таких як: відкриття "Євробачення 2005" в Києві, Міжнародний музичний фестиваль "Таврійські ігри 2005-2006", Міжнародний турнір по бодібілдінгу "Золотий каштан 2005-2006", Український музичний фестиваль "Блакитний берег 2006", Церемонія нагородження премії у сфері телебачення "Телетріумф 2006", Перший український бал "Золота Амфора", Церемонія нагородження номінації "Кращий спортсмен року 2006", Церемонія нагородження номінації "Гордість країни 2007", а також відкриття виставок і презентацій компаній "Microsoft", "Samsung", "LG", "Audi", "Toyota", "Subaru", "KIA", і інших брендів. Окрім цього колектив давав ряд сольних концертів в Україні і за кордоном, а також записував перший альбом.
Якщо Ви справді бажаєте підтримати українське - після прослуховування, якщо музика вам сподобалась, придбайте ліцензійний диск. Підтримаймо вітчизняних виконавців!

Також на Толоці Ви можете знайти:
Symfomania - Empire (2009) [MP3]
Symfomania - Aria (2010) [MP3]
Symfomania - Aria (2010) [FLAC]


Срібний реліз (на рейтинг впливає 50% завантаженого)
 Трекер:    Зареєстрований   

Завантажити / скачати українську музику



відео для новачків



 Зареєстрований:   2011-02-27 12:51
 Розмір:   296 MB 
 Оцінка музики:   9.9/10 (Голосів: 8)
   
west 
Поважний учасник


З нами з: 03.03.09
Востаннє: 08.12.16
Повідомлень: 165

2011-01-13 17:10  
Опис "здер" з сусіднього релізу пана aimtoknow, за що йому дякую Happy
ssTAss 
Модератор музики


З нами з: 05.07.08
Востаннє: 09.12.16
Повідомлень: 10948

2011-01-13 21:56  
дайте будь-ласка звіт аудіочекера, бо по мережі гуляє апконверт
(або скріни спектрів)

west 
Поважний учасник


З нами з: 03.03.09
Востаннє: 08.12.16
Повідомлень: 165

2011-01-13 22:45  
Ваша правда.. а я так зрадів Sad (1)
log
AUDIOCHECKER v2.0 beta (build 457) - by Dester - [email protected]
~~~~~~~~~~~~~~~~~~~~~~~~~~~~~~~~~~

Started at: четвер, 13. 01. 2011. - 22:38.27
1 file found

1 -===- D:\Music\Symfomania\2009 - Empire (flac)\Symfomania - Empire.flac
Extracted successfully
Conclusion: this track is MPEG with probability 95%
Tempfile successfully deleted.

Finished at: четвер, 13. 01. 2011. - 22:41.54 (operation time: 0:03.26)

ssTAss 
Модератор музики


З нами з: 05.07.08
Востаннє: 09.12.16
Повідомлень: 10948

2011-01-13 23:11  
west написано:
Ваша правда.. а я так зрадів

зараз стягну і зроблю потрековий аналіз
будемо чекати на справжній лусслесс, а в цьому зроблю примітку

Додано через 2 хвилини 47 секунд:

упс... не побачив скріну спектру)
хороші 320.. але не поспішаймо, можливо дійсно "так записали"??
може в когось є диск і може звірити спектри?

Додано через 17 хвилин 13 секунд:

перевірив.. спектри один в один з релізом Symfomania - Empire (2009) [MP3]

west 
Поважний учасник


З нами з: 03.03.09
Востаннє: 08.12.16
Повідомлень: 165

2011-01-13 23:16  
Ну тоді виходить, що цей реліз зайвий.. Навіть якщо так записали, то у lossless немає потреби. Мабуть треба зносити тему.
POMEO 
Відео Гуртом - запис з ТБ
Відео Гуртом - запис з ТБ


З нами з: 01.07.08
Востаннє: 09.12.16
Повідомлень: 785

2011-02-25 23:11  
Ось і в мене з'явились ці альбоми... Перевірив свій, також показує мпег. Навряд це апконверт, скоріш за все такий запис... Та в мене другий CRC EE92F980, якщо порівнювати з цим ріпом...

ssTAss 
Модератор музики


З нами з: 05.07.08
Востаннє: 09.12.16
Повідомлень: 10948

2011-02-26 18:16  
POMEO написано:
Ось і в мене з'явились ці альбоми...

Ваш альбом кращої якості
хоч і йде основна обрізка на 20-20,5 тис., але все ж таки є частоти і вище
викладайте
хоч і дуже шкода, що тепер так пишуть на диск...
а де купували диск? може то якась піратська партія чи що? Rolleyes (2)

POMEO 
Відео Гуртом - запис з ТБ
Відео Гуртом - запис з ТБ


З нами з: 01.07.08
Востаннє: 09.12.16
Повідомлень: 785

2011-02-26 20:42  
Купував в магазині "CORE" - спеціалізується на всьому метальному цей магазин...
Навряд це піратки, навіть автографи є...
Ці альбоми планує СД-МАКСИМУМ випустити, може тоді будуть спектри кращі, хто його знає...
Може краще я загружу на файлообмінник свій ріп і покладу тут лінк в спойлері, а хто забажає - нехай викладає? Rolleyes (1)

ssTAss 
Модератор музики


З нами з: 05.07.08
Востаннє: 09.12.16
Повідомлень: 10948

2011-02-26 21:24  
POMEO написано:
Може краще я загружу на файлообмінник свій ріп і покладу тут лінк в спойлері, а хто забажає - нехай викладає?

самі не хочете спробувати?
якщо ні, то краще нехай west зробить новий реліз (скиньте в ПП йому лінк на завантаження... але прохання, зробіть правильний ріп (образ+куе) і обкладинки не завадило б відсканувати (наглію, але хочеться щоб все було якнайкраще))

POMEO 
Відео Гуртом - запис з ТБ
Відео Гуртом - запис з ТБ


З нами з: 01.07.08
Востаннє: 09.12.16
Повідомлень: 785

2011-02-26 22:09  
ssTAss
Сам не хочу, бо хвороба не відпускає - лінь називається Happy
ріпи в мене правильні, ось лог:
Exact Audio Copy V0.99 prebeta 5 from 4. May 2009

EAC extraction logfile from 23. February 2011, 22:31

Symfomania / Empire

Used drive : ASUS DRW-1814BL Adapter: 0 ID: 0

Read mode : Secure
Utilize accurate stream : Yes
Defeat audio cache : Yes
Make use of C2 pointers : No

Read offset correction : 6
Overread into Lead-In and Lead-Out : No
Fill up missing offset samples with silence : Yes
Delete leading and trailing silent blocks : No
Null samples used in CRC calculations : Yes
Used interface : Native Win32 interface for Win NT & 2000

Used output format : Monkey's Audio Lossless Encoder
Selected bitrate : High Lossless Compression
Quality : High
Add ID3 tag : No
Command line compressor : C:\Program Files\Monkey's Audio\MAC.exe

TOC of the extracted CD

Track | Start | Length | Start sector | End sector
---------------------------------------------------------
1 | 0:00.00 | 3:53.57 | 0 | 17531
2 | 3:53.57 | 3:28.61 | 17532 | 33192
3 | 7:22.43 | 3:58.30 | 33193 | 51072
4 | 11:20.73 | 2:37.29 | 51073 | 62876
5 | 13:58.27 | 3:04.26 | 62877 | 76702
6 | 17:02.53 | 2:55.37 | 76703 | 89864
7 | 19:58.15 | 2:43.61 | 89865 | 102150
8 | 22:42.01 | 2:32.00 | 102151 | 113550
9 | 25:14.01 | 1:44.45 | 113551 | 121395
10 | 26:58.46 | 2:50.55 | 121396 | 134200
11 | 29:49.26 | 2:17.54 | 134201 | 144529
12 | 32:07.05 | 3:27.18 | 144530 | 160072
13 | 35:34.23 | 3:15.09 | 160073 | 174706
14 | 38:49.32 | 2:43.40 | 174707 | 186971
15 | 41:32.72 | 2:05.39 | 186972 | 196385

Range status and errors

Selected range

Filename C:\mactepok.moole.ru\Symfomania - Empire.wav

Peak level 100.0 %
Range quality 100.0 %
Test CRC EE92F980
Copy CRC EE92F980
Copy OK

No errors occurred

AccurateRip summary

Track 1 not present in database
Track 2 not present in database
Track 3 not present in database
Track 4 not present in database
Track 5 not present in database
Track 6 not present in database
Track 7 not present in database
Track 8 not present in database
Track 9 not present in database
Track 10 not present in database
Track 11 not present in database
Track 12 not present in database
Track 13 not present in database
Track 14 not present in database
Track 15 not present in database

None of the tracks are present in the AccurateRip database

End of status report
Обкладинки вже сканую. Відправлю тоді пану Весту, а він вже нехай вирішує що робити Rolleyes (3)

ssTAss 
Модератор музики


З нами з: 05.07.08
Востаннє: 09.12.16
Повідомлень: 10948

2011-02-26 22:13  
POMEO написано:
Відправлю тоді пану Весту, а він вже нехай вирішує що робити

добре
west, з нетерпінням чекаємо на оновлення релізу Wink (2)

west 
Поважний учасник


З нами з: 03.03.09
Востаннє: 08.12.16
Повідомлень: 165

2011-02-27 12:55  
Реліз оновлено!
POMEO, ще раз дякую за ріп Happy

POMEO 
Відео Гуртом - запис з ТБ
Відео Гуртом - запис з ТБ


З нами з: 01.07.08
Востаннє: 09.12.16
Повідомлень: 785

2011-02-27 13:11  
west
Та нема за що ))
Тільки все ж треба змінити [FLAC] і Аудіо-кодек: FLAC на APE

west 
Поважний учасник


З нами з: 03.03.09
Востаннє: 08.12.16
Повідомлень: 165

2011-02-27 13:17  
Дійсно, пропустив)
Виправив Happy

ssTAss 
Модератор музики


З нами з: 05.07.08
Востаннє: 09.12.16
Повідомлень: 10948

2011-03-01 22:54  
нє, ну майте совість)))
а роздавати хто буде? Wink (2)
зара забаню всіх, курча ляга))) Wide grin

POMEO 
Відео Гуртом - запис з ТБ
Відео Гуртом - запис з ТБ


З нами з: 01.07.08
Востаннє: 09.12.16
Повідомлень: 785

2011-03-01 23:33  
Тоді качну і я, та роздам трохи Happy
west 
Поважний учасник


З нами з: 03.03.09
Востаннє: 08.12.16
Повідомлень: 165

2011-03-02 22:13  
По можливості стою на роздачі, правда чекав поки двоє завантажили, не знаю куди всі зникають Happy
Ваш часовий пояс: GMT + 2 Години

Нова тема   Відповісти