Завантажити та скачати торренти українською


Останній володар стихій / The Last Airbender (2010) [3D] 1080p Ukr

Нові коментарі

Нова тема   Відповісти
Автор Повідомлення
мармуляда 
Свій


З нами з: 17.04.09
Востаннє: 30.11.16
Повідомлень: 62

2011-01-12 19:19  
Останній володар стихій / The Last Airbender (2010) 1080p [3D] Ukr



Жанр: бойовик, фентезі, пригоди, сімейний
Країна: США



Кіностудія / кінокомпанія: Paramount Pictures
Режисер: М. Найт Шьямалан
Актори: Ноа Рінгер, Дев Патель, Нікола Пельтц, Джексон Ретбоун, Шон Тоуб, Аасиф Мандві, Кліфф Кертіс, Сейшелл Гебріел, Кетрін Хотон, Френсіс Гуінан

Сюжет:
Повітряні кочівники, Плем'я Води, Царство Землі і Народ Вогню. Чотири нації були пов'язані долею, коли Народ Вогню почав жорстоку війну проти всіх. Минуло сто років без надії щось змінити в цьому світі. Народ Вогню майже близький до перемоги у війні. Опинившись між боротьбою і хоробрістю, юний Аанг розуміє, що він - Аватар, який володіє силою повелівати чотирма стихіями, і те, що тільки він може повернути баланс і відновити мир на землі. Разом з юною володаркою води Катару та її братом Сокко він відправляється в подорож.


Фільм у фоматі 3D
Формат 3D: Half SideBySide / горизонтальна анаморфна стереопара
Порядок ракурсів: параллельна пара

Тривалість: 01:43:00
Якість:
Відео:
кодек:
розмір кадру: 1920 х 1080
бітрейт: 8 064 кб/с

Аудіо:
мова: українська
переклад: професійний дубльований
кодек: 2.0
бітрейт: 320 кб/с
Скріншоти:









Media info:
General
Complete name : E:\Films\need to\The Last Airbender (2010) 1080p Ukr.mkv
Format : Matroska
File size : 5.81 GiB
Duration : 1h 43mn
Overall bit rate : 8 064 Kbps
Encoded date : UTC 2011-01-12 16:23:13
Writing application : mkvmerge v4.0.0 ('The Stars were mine') збірка від Jun 6 2010 16:18:42
Writing library : libebml v1.0.0 + libmatroska v1.0.0

Video
ID : 1
Format : AVC
Format/Info : Advanced Video Codec
Format profile : [email protected]
Format settings, CABAC : Yes
Format settings, ReFrames : 4 frames
Muxing mode : Container [email protected]
Codec ID : V_MPEG4/ISO/AVC
Duration : 1h 43mn
Bit rate : 7 583 Kbps
Width : 1 920 pixels
Height : 1 080 pixels
Display aspect ratio : 16:9
Frame rate : 23.976 fps
Resolution : 8 bits
Colorimetry : 4:2:0
Scan type : Progressive
Bits/(Pixel*Frame) : 0.153
Stream size : 5.46 GiB (94%)
Writing library : core 108 r1788 c764e29
Encoding settings : cabac=1 / ref=4 / deblock=1:-2:-2 / analyse=0x3:0x113 / me=umh / subme=7 / psy=1 / psy_rd=1.00:0.00 / mixed_ref=1 / me_range=16 / chroma_me=1 / trellis=2 / 8x8dct=1 / cqm=0 / deadzone=21,11 / fast_pskip=1 / chroma_qp_offset=-3 / threads=6 / sliced_threads=0 / nr=0 / decimate=1 / interlaced=0 / constrained_intra=0 / bframes=6 / b_pyramid=0 / b_adapt=2 / b_bias=0 / direct=3 / weightb=1 / open_gop=0 / weightp=2 / keyint=250 / keyint_min=23 / scenecut=40 / intra_refresh=0 / rc_lookahead=40 / rc=crf / mbtree=1 / crf=18.0 / qcomp=0.60 / qpmin=10 / qpmax=51 / qpstep=4 / ip_ratio=1.40 / aq=1:1.00

Audio
ID : 2
Format : AC-3
Format/Info : Audio Coding 3
Codec ID : A_AC3
Duration : 1h 43mn
Bit rate mode : Constant
Bit rate : 320 Kbps
Channel(s) : 2 channels
Channel positions : Front: L R
Sampling rate : 48.0 KHz
Stream size : 236 MiB (4%)
Джерело:
Особиста оцінка: 0 - не дивився

Програмні субтитри у форматі *srt можна скачати тут українською та англійською мовами.

Для перегляду потрібен програвач, що вміє відтворювати 3D + монітор/телевізор, що вміє показувати 3D + окуляри.
Можна переглядати й за допомогою програми Cyberlink PowerDVD 10, яка вміє перетворювати горизонтальну анаморфну стереопару у анальгіф (гірший формат, менш чіткий, але не потрібно спеціальних моніторів/теликів, для перегляду потрібні червоно-сині окуляри)


 Трекер:    Зареєстрований   

Завантажити / скачати фільм українською



відео для новачків



 Зареєстрований:   2011-01-12 19:19
 Розмір:   5.81 GB 
 Оцінка фільму:   8.8/10 (Голосів: 12)
   
Бузьок 
програми
програми


З нами з: 18.10.09
Востаннє: 27.11.16
Повідомлень: 1009

2011-01-12 21:00  
мармуляда перший фільм на толоці у форматі стереопара Happy
а я то думав що я перший викладу Sad (2)

мармуляда 
Свій


З нами з: 17.04.09
Востаннє: 30.11.16
Повідомлень: 62

2011-01-12 21:37  
А я то думаю чому не міг знайти нічого по стереопарі на толоці Happy, тоді першим буду Wink (2)
Бузьок 
програми
програми


З нами з: 18.10.09
Востаннє: 27.11.16
Повідомлень: 1009

2011-01-12 22:43  
мармуляда я зараз займаюсь зведенням усіх моїх 3D фільмів з українськими доріжками.
зараз викладу Різдвяну історію в стереопарі

Gashik 
Відео Гуртом - субтитрування
Відео Гуртом - субтитрування


З нами з: 15.12.09
Востаннє: 01.12.16
Повідомлень: 331

2011-02-23 10:07  
я перепрошую, але де швидкість???
inki 
VIP


З нами з: 24.10.09
Востаннє: 13.10.16
Повідомлень: 380

2011-02-23 10:24  
Дайте скачати, буду на роздачі!
мармуляда 
Свій


З нами з: 17.04.09
Востаннє: 30.11.16
Повідомлень: 62

2011-02-23 10:30  
через 20 хв буде
klifort 
Відео Гуртом - підтримка та поширення
Відео Гуртом - підтримка та поширення


З нами з: 24.11.10
Востаннє: 17.11.16
Повідомлень: 8

2011-05-25 08:15  
дайте докачати ще 12% і буду роздавати
Kowin 
Поважний учасник


З нами з: 28.07.08
Востаннє: 22.09.16
Повідомлень: 166

2012-01-06 16:53  
Просідуйте будь ласка до кінця
chufic 
Новенький


З нами з: 10.02.12
Востаннє: 15.02.12
Повідомлень: 1

2012-02-12 21:55  
Дайте швидкості..
БодікД 
Свій


З нами з: 24.12.10
Востаннє: 08.11.16
Повідомлень: 54

2012-03-15 23:23  
Цей фільм для школярів молодших класів, в стилі боєвих мистецтв, потрібно було це написати щоб дурно не закачували, не займали місце на компі, воно на жаль не гумове. Скачував той - хто любить такі фільми.Я за здоровий образ життя.... але?
Bohdan237 
Відео Гуртом - фільмокрай
Відео Гуртом - фільмокрай


З нами з: 12.02.12
Востаннє: 03.12.16
Повідомлень: 383

2012-03-30 10:24  
Дайте швидкості мені лишилося 14%
Bohdan237 
Відео Гуртом - фільмокрай
Відео Гуртом - фільмокрай


З нами з: 12.02.12
Востаннє: 03.12.16
Повідомлень: 383

2012-03-30 23:43  
Фільм класний хоча можна було побільш серйознішої війни!!!! 10/10
yarik8118 
Новенький


З нами з: 06.06.09
Востаннє: 21.11.16
Повідомлень: 4

2012-07-18 14:21  
Де швидкість, хто там обіцяв роздавати???
sasha-pl 
Новенький


З нами з: 15.07.12
Востаннє: 21.06.16
Повідомлень: 1

2012-08-15 10:43  
Де швидкість???
onyx-de-han 
Новенький


З нами з: 29.05.16
Востаннє: 02.12.16
Повідомлень: 2

2016-08-31 00:21  
відновіть роздачу будьласка
Ваш часовий пояс: GMT + 2 Години

Нова тема   Відповісти