Завантажити та скачати торренти українською


11/12/13 друзів Оушена / Ocean's 11, Ocean's 12, Ocean's 13 (2001,2004,2007) 720p Ukr/Eng | Sub Multilang

Нові коментарі

Нова тема   Відповісти
Автор Повідомлення
DiGen 
Модератор HD та координатор Команди HD
Модератор HD та координатор Команди HD


З нами з: 12.11.09
Востаннє: 24.06.13
Повідомлень: 1452

2011-01-11 11:08  
Одинадцять друзів Оушена, Дванадцять друзів Оушена, Тринадцять друзів Оушена / Ocean's Eleven, Ocean's Twelve, Ocean's Thirteen (2001, 2004, 2007) 720p Ukr/Eng | Sub Multilang


Одинадцять друзів Оушена

Одинадцять друзів Оушена / Ocean's Eleven (2001) 720p Ukr/Eng | Sub Multilang


Жанр: комедія, кримінал, трилер
Країна: США

7.6/10 (124,361 голосів)

Кіностудія / кінокомпанія: Warner Bros.
Режисер: Стівен Содеберг /Steven Soderbergh
Актори: Джордж Клуні /George Clooney/, Бред Пітт /Brad Pitt/, Метт Деймон /Matt Damon/, Дон Чідл /Don Cheadle/, Енді Гарсія /Andy Garcia/, Джулія Робертс /Julia Roberts

Сюжет:
Післе виходу з в'язниці злодія Денні Оушена не проходить і 24 годин, а він вже планує організувати найскладнішу крадіжку казино в історії. Він хоче викрасти 150 млн. доларів з трьох найбільших казино Лос-Вегаса. Всі ці казино належать елегантному і в той же час суворому бізнесмену Террі Бенедикту, який тільки й мріє про те, як зустрітися з колишньою дружиною Денні Оушена - Тесс. Можливо це лише збіг обставин? А можливо це привід?


Тривалість: 01:56:35
Якість: 720p
Відео:
кодек:
розмір кадру: 1280x532
бітрейт: 3903 кб/с
частота кадрів: 23.976 fps

Аудіо # 1:
мова: українська
переклад: багатоголосий закадровий
кодек: 5.1
бітрейт: 384 кб/с

Аудіо # 2:
мова: англійська
переклад: оригінал
кодек: 5.1
бітрейт: 640 кб/с

Аудіо # 2:
мова: англійська
переклад: коментарі творців
кодек: 2.0
бітрейт: 192 кб/с

Субтитри:
мова: багато (детально в MediaInfo)
тип: програмні (м'які)
формат: *.srt
MediaInfo

General
Complete name : G:\FILMS\F_02_UKR\!!!MOYI RELIZY\Ocean's 11,12,13 (2001,2004,2007) 720p\Ocean's Trilogy (2001,2004,2007) 720p..[UKR AC3_5.1,ENG].[HURTOM] by DiGen\Ocean's 11 (2001) 1'56'34 720p[1280x532-3903]..[UKR AC3_5.1,ENG].[HURTOM] by DiGen.mkv
Format : Matroska
File size : 4.14 GiB
Duration : 1h 56mn
Overall bit rate : 5 084 Kbps
Encoded date : UTC 2011-01-24 00:40:10
Writing application : mkvmerge v2.4.2 ('Oh My God') built on Jan 18 2009 17:30:28
Writing library : libebml v0.7.7 + libmatroska v0.8.1
Video #1
ID : 1
Format : AVC
Format/Info : Advanced Video Codec
Format profile : [email protected]
Format settings, CABAC : Yes
Format settings, ReFrames : 1 frame
Muxing mode : Container [email protected]
Codec ID : V_MPEG4/ISO/AVC
Duration : 1h 56mn
Bit rate : 3 767 Kbps
Nominal bit rate : 3 903 Kbps
Width : 1 280 pixels
Height : 532 pixels
Display aspect ratio : 2.40:1
Frame rate : 23.976 fps
Resolution : 24 bits
Colorimetry : 4:2:0
Scan type : Progressive
Bits/(Pixel*Frame) : 0.231
Stream size : 3.06 GiB (74%)
Title : Ocean's 11 (2001) 720p.Tr_01.Video.1280x532-3903.[HURTOM] by DiGen
Writing library : core 68 r1195bm 5d75a9b
Encoding settings : cabac=1 / ref=1 / deblock=1:0:0 / analyse=0x3:0x13 / me=umh / subme=7 / psy_rd=0.0:0.0 / mixed_ref=0 / me_range=16 / chroma_me=1 / trellis=1 / 8x8dct=1 / cqm=0 / deadzone=21,11 / chroma_qp_offset=0 / threads=1 / thread_queue=1 / nr=0 / decimate=1 / mbaff=0 / bframes=0 / keyint=250 / keyint_min=25 / scenecut=40 / rc=abr / bitrate=3903 / ratetol=1.0 / qcomp=0.60 / qpmin=10 / qpmax=51 / qpstep=4 / ip_ratio=1.40 / aq=2:1.00
Language : English
Audio #2
ID : 2
Format : AC-3
Format/Info : Audio Coding 3
Codec ID : A_AC3
Duration : 1h 56mn
Bit rate mode : Constant
Bit rate : 384 Kbps
Channel(s) : 6 channels
Channel positions : Front: L C R, Surround: L R, LFE
Sampling rate : 48.0 KHz
Stream size : 320 MiB (8%)
Title : Ocean's 11 (2001) 720p.Tr_02.A-UKR.-384_BZ.[HURTOM] by DiGen
Language : Ukrainian
Audio #3
ID : 3
Format : AC-3
Format/Info : Audio Coding 3
Codec ID : A_AC3
Duration : 1h 56mn
Bit rate mode : Constant
Bit rate : 640 Kbps
Channel(s) : 6 channels
Channel positions : Front: L C R, Surround: L R, LFE
Sampling rate : 48.0 KHz
Stream size : 534 MiB (13%)
Title : Ocean's 11 (2001) 720p.Tr_03.A-Eng.-640_O.[HURTOM] by DiGen
Language : English
Audio #4
ID : 4
Format : AC-3
Format/Info : Audio Coding 3
Format profile : Dolby Digital
Codec ID : A_AC3
Duration : 1h 56mn
Bit rate mode : Constant
Bit rate : 192 Kbps
Channel(s) : 2 channels
Channel positions : L R
Sampling rate : 48.0 KHz
Stream size : 160 MiB (4%)
Title : Ocean's 11 (2001) 720p.Tr_04.A-Eng.ac3_2.0-192_Comments.[HURTOM] by DiGen
Language : English
Text #5
ID : 5
Format : UTF-8
Codec ID : S_TEXT/UTF8
Codec ID/Info : UTF-8 Plain Text
Title : Ocean's 11 (2001) 720p.Tr_05.Sub-Eng.srt.[HURTOM] by DiGen
Language : English
Text #6
ID : 6
Format : UTF-8
Codec ID : S_TEXT/UTF8
Codec ID/Info : UTF-8 Plain Text
Title : Ocean's 11 (2001) 720p.Tr_06.Sub-Fre.srt.[HURTOM] by DiGen
Language : French
Text #7
ID : 7
Format : UTF-8
Codec ID : S_TEXT/UTF8
Codec ID/Info : UTF-8 Plain Text
Title : Ocean's 11 (2001) 720p.Tr_07.Sub-Dan.srt.[HURTOM] by DiGen
Language : Danish
Text #8
ID : 8
Format : UTF-8
Codec ID : S_TEXT/UTF8
Codec ID/Info : UTF-8 Plain Text
Title : Ocean's 11 (2001) 720p.Tr_08.Sub-Ger.srt.[HURTOM] by DiGen
Language : German
Text #9
ID : 9
Format : UTF-8
Codec ID : S_TEXT/UTF8
Codec ID/Info : UTF-8 Plain Text
Title : Ocean's 11 (2001) 720p.Tr_09.Sub-Spa.srt.[HURTOM] by DiGen
Language : Spanish
Text #10
ID : 10
Format : UTF-8
Codec ID : S_TEXT/UTF8
Codec ID/Info : UTF-8 Plain Text
Title : Ocean's 11 (2001) 720p.Tr_10.Sub-Por.srt.[HURTOM] by DiGen
Language : Portuguese
Text #11
ID : 11
Format : UTF-8
Codec ID : S_TEXT/UTF8
Codec ID/Info : UTF-8 Plain Text
Title : Ocean's 11 (2001) 720p.Tr_11.Sub-Ita.srt.[HURTOM] by DiGen
Language : Italian
Text #12
ID : 12
Format : UTF-8
Codec ID : S_TEXT/UTF8
Codec ID/Info : UTF-8 Plain Text
Title : Ocean's 11 (2001) 720p.Tr_12.Sub-Fin.srt.[HURTOM] by DiGen
Language : Finnish
Text #13
ID : 13
Format : UTF-8
Codec ID : S_TEXT/UTF8
Codec ID/Info : UTF-8 Plain Text
Title : Ocean's 11 (2001) 720p.Tr_13.Sub-Nor.srt.[HURTOM] by DiGen
Language : Norwegian
Text #14
ID : 14
Format : UTF-8
Codec ID : S_TEXT/UTF8
Codec ID/Info : UTF-8 Plain Text
Title : Ocean's 11 (2001) 720p.Tr_14.Sub-Dut.srt.[HURTOM] by DiGen
Language : Dutch
Text #15
ID : 15
Format : UTF-8
Codec ID : S_TEXT/UTF8
Codec ID/Info : UTF-8 Plain Text
Title : Ocean's 11 (2001) 720p.Tr_15.Sub-Swe.srt.[HURTOM] by DiGen
Language : Swedish
Світлини:





Дванадцять друзів Оушена

Дванадцять друзів Оушена / Ocean's Twelve (2004) 720p Ukr/Eng | Sub Multilang



Жанр: комедія, кримінальний, трилер
Країна: США

6.0/10 (78,806 голосів)

Кіностудія / кінокомпанія: Warner Bros.
Режисер: Стівен Содеберг /Steven Soderbergh
Актори: Джордж Клуні/George Clooney/, Бред Пітт/Brad Pitt/, Джулія Робертс/Julia Roberts/, Енді Гарсіа/Andy Garcia/, Метт Деймон/Matt Damon/, Берні Мак/Bernie Mac

Сюжет:
І знову гангстер Денні Оушен збирає свою банду професійних злодіїв і шахраїв, в якій з'явилися і нові особи. На цей раз вони задумали провернути три пограбування в найбільших європейських столицях. Можливо, для цього банді придйеться разділитися на три групи.

Тим часом власник казино Террі Бенедикт, якого Оушен зі своїми приятелями обчистив в Лас-Вегасі, прагне помсти і буквально висить в них на хвості… Він злий і намагається наздогнати банду, за якою також полюють агенти Європолу і таємничий французький конкурент по імені Діннер Джекет…


Тривалість: 02:05:18
Якість: 720p
Відео:
кодек:
розмір кадру: 1280x532
бітрейт: 3623 кб/с
частота кадрів: 23.976 fps

[Аудіо # 1:
мова: українська
переклад: багатоголосий закадровий
кодек: 5.1
бітрейт: 448 кб/с

Аудіо # 2:
мова: англійська
переклад: оригінал
кодек: 5.1
бітрейт: 640 кб/с

Аудіо # 2:
мова: англійська
переклад: коментарі творців
кодек: 2.0
бітрейт: 192 кб/с

Субтитри:
мова: багато (детально в MediaInfo)
тип: програмні (м'які)
формат: *.srt
MediaInfo

General
Complete name : G:\FILMS\F_02_UKR\!!!MOYI RELIZY\Ocean's 11,12,13 (2001,2004,2007) 720p\Ocean's Trilogy (2001,2004,2007) 720p..[UKR AC3_5.1,ENG].[HURTOM] by DiGen\Ocean's 12 (2004) 2'05'18 720p[1280x532-3623]..[UKR AC3_5.1,ENG].[HURTOM] by DiGen.mkv
Format : Matroska
File size : 4.26 GiB
Duration : 2h 5mn
Overall bit rate : 4 868 Kbps
Encoded date : UTC 2011-01-24 00:51:07
Writing application : mkvmerge v2.4.2 ('Oh My God') built on Jan 18 2009 17:30:28
Writing library : libebml v0.7.7 + libmatroska v0.8.1
Video #1
ID : 1
Format : AVC
Format/Info : Advanced Video Codec
Format profile : [email protected]
Format settings, CABAC : Yes
Format settings, ReFrames : 1 frame
Muxing mode : Container [email protected]
Codec ID : V_MPEG4/ISO/AVC
Duration : 2h 5mn
Bit rate : 3 491 Kbps
Nominal bit rate : 3 623 Kbps
Width : 1 280 pixels
Height : 532 pixels
Display aspect ratio : 2.40:1
Frame rate : 23.976 fps
Resolution : 24 bits
Colorimetry : 4:2:0
Scan type : Progressive
Bits/(Pixel*Frame) : 0.214
Stream size : 3.05 GiB (72%)
Title : Ocean's Twelve (2004).720p.Tr_01.Video.1280x532-3623.[HURTOM] by DiGen
Writing library : core 68 r1195bm 5d75a9b
Encoding settings : cabac=1 / ref=1 / deblock=1:0:0 / analyse=0x3:0x13 / me=umh / subme=7 / psy_rd=0.0:0.0 / mixed_ref=0 / me_range=16 / chroma_me=1 / trellis=1 / 8x8dct=1 / cqm=0 / deadzone=21,11 / chroma_qp_offset=0 / threads=1 / thread_queue=1 / nr=0 / decimate=1 / mbaff=0 / bframes=0 / keyint=250 / keyint_min=25 / scenecut=40 / rc=abr / bitrate=3623 / ratetol=1.0 / qcomp=0.60 / qpmin=10 / qpmax=51 / qpstep=4 / ip_ratio=1.40 / aq=2:1.00
Language : English
Audio #2
ID : 2
Format : AC-3
Format/Info : Audio Coding 3
Codec ID : A_AC3
Duration : 2h 5mn
Bit rate mode : Constant
Bit rate : 448 Kbps
Channel(s) : 6 channels
Channel positions : Front: L C R, Surround: L R, LFE
Sampling rate : 48.0 KHz
Stream size : 402 MiB (9%)
Title : Ocean's Twelve (2004).720p.Tr_02.A-UKR_AC3-448_BZ.[HURTOM] by DiGen
Language : Ukrainian
Audio #3
ID : 3
Format : AC-3
Format/Info : Audio Coding 3
Codec ID : A_AC3
Duration : 2h 5mn
Bit rate mode : Constant
Bit rate : 640 Kbps
Channel(s) : 6 channels
Channel positions : Front: L C R, Surround: L R, LFE
Sampling rate : 48.0 KHz
Stream size : 574 MiB (13%)
Title : Ocean's Twelve (2004).720p.Tr_03.A-Eng_AC3-640.[HURTOM] by DiGen
Language : English
Audio #4
ID : 4
Format : AC-3
Format/Info : Audio Coding 3
Format profile : Dolby Digital
Codec ID : A_AC3
Duration : 2h 5mn
Bit rate mode : Constant
Bit rate : 192 Kbps
Channel(s) : 2 channels
Channel positions : L R
Sampling rate : 48.0 KHz
Stream size : 172 MiB (4%)
Title : Ocean's Twelve (2004).720p.Tr_04.A-Eng_AC3-192.Comments of autors.By DiGen
Language : English
Text #5
ID : 5
Format : UTF-8
Codec ID : S_TEXT/UTF8
Codec ID/Info : UTF-8 Plain Text
Title : Ocean's Twelve (2004).720p.Tr_05.Sub-Eng.srt.By DiGen
Language : English
Text #6
ID : 6
Format : UTF-8
Codec ID : S_TEXT/UTF8
Codec ID/Info : UTF-8 Plain Text
Title : Ocean's Twelve (2004).720p.Tr_06.Sub-Ger.srt.By DiGen
Language : German
Text #7
ID : 7
Format : UTF-8
Codec ID : S_TEXT/UTF8
Codec ID/Info : UTF-8 Plain Text
Title : Ocean's Twelve (2004).720p.Tr_07.Sub-Fre.srt.By DiGen
Language : French
Text #8
ID : 8
Format : UTF-8
Codec ID : S_TEXT/UTF8
Codec ID/Info : UTF-8 Plain Text
Title : Ocean's Twelve (2004).720p.Tr_08.Sub-Ita.srt.By DiGen
Language : Italian
Text #9
ID : 9
Format : UTF-8
Codec ID : S_TEXT/UTF8
Codec ID/Info : UTF-8 Plain Text
Title : Ocean's Twelve (2004).720p.Tr_09.Sub-Fin.srt.By DiGen
Language : Finnish
Text #10
ID : 10
Format : UTF-8
Codec ID : S_TEXT/UTF8
Codec ID/Info : UTF-8 Plain Text
Title : Ocean's Twelve (2004).720p.Tr_10.Sub-Spa.srt.By DiGen
Language : Spanish
Text #11
ID : 11
Format : UTF-8
Codec ID : S_TEXT/UTF8
Codec ID/Info : UTF-8 Plain Text
Title : Ocean's Twelve (2004).720p.Tr_11.Sub-Swe.srt.By DiGen
Language : Swedish
Text #12
ID : 12
Format : UTF-8
Codec ID : S_TEXT/UTF8
Codec ID/Info : UTF-8 Plain Text
Title : Ocean's Twelve (2004).720p.Tr_12.Sub-Por.srt.By DiGen
Language : Portuguese
Text #13
ID : 13
Format : UTF-8
Codec ID : S_TEXT/UTF8
Codec ID/Info : UTF-8 Plain Text
Title : Ocean's Twelve (2004).720p.Tr_13.Sub-Nor.srt.By DiGen
Language : Norwegian
Text #14
ID : 14
Format : UTF-8
Codec ID : S_TEXT/UTF8
Codec ID/Info : UTF-8 Plain Text
Title : Ocean's Twelve (2004).720p.Tr_14.Sub-Dan.srt.By DiGen
Language : Danish
Text #15
ID : 15
Format : UTF-8
Codec ID : S_TEXT/UTF8
Codec ID/Info : UTF-8 Plain Text
Title : Ocean's Twelve (2004).720p.Tr_15.Sub-Dut.srt.By DiGen
Language : Dutch
Світлини:





Тринадцять друзів Оушена

Тринадцять друзів Оушена / Ocean's Thirteen (2007) 720p Ukr/Eng | Sub Multilang



Жанр: комедія, кримінальний, трилер
Країна: США

7.0/10 (66,370 голосів)

Кіностудія / кінокомпанія: Warner Bros.
Режисер: Стівен Содеберг /Steven Soderbergh
Актори: Джордж Клуні /George Clooney/, Бред Пітт /Brad Pitt/, Метт Деймон /Matt Damon/, Еліот Гоулд /Elliott Gould/, Берні Мак /Bernie Mac/, Аль Пачіно /Al Pacino

Сюжет:
У Денні Оушена і його команди могла бути лише одна причина, згідно якої вони готові провернути саме амбиційне і ризиковане пограбування казино в їх житті, — заради захисту одного із «своїх».

Коли безжальний власник казино Віллі Бенк підставляє одного з одинадцять друзів Оушена, — а саме Рубена Тишкоффа, — Денні і його вірним соратникам нічого не залишається, як знову об'єднатися, щоби перевірити, чи взмозі вони ще зірвати «банк».


Тривалість: 02:02:09
Якість: 720p
Відео:
кодек:
розмір кадру: 1280x532
бітрейт: 3773 кб/с
частота кадрів: 23.976 fps

Аудіо # 1:
мова: українська
переклад: багатоголосий закадровий
кодек: 5.1
бітрейт: 384 кб/с

Аудіо # 2:
мова: англійська
переклад: оригінал
кодек: 5.1
бітрейт: 640 кб/с

Аудіо # 2:
мова: англійська
переклад: коментарі творців
кодек: 2.0
бітрейт: 192 кб/с

Субтитри:
мова: багато (детально в MediaInfo)
тип: програмні (м'які)
формат: *.srt
MediaInfo

General
Complete name : G:\FILMS\F_02_UKR\!!!MOYI RELIZY\Ocean's 11,12,13 (2001,2004,2007) 720p\Ocean's Trilogy (2001,2004,2007) 720p..[UKR AC3_5.1,ENG].[HURTOM] by DiGen\Ocean's 13 (2007) 2'02'09 720p[1280x532-3773]..[UKR AC3_5.1,ENG].[HURTOM] by DiGen.mkv
Format : Matroska
File size : 4.22 GiB
Duration : 2h 2mn
Overall bit rate : 4 942 Kbps
Encoded date : UTC 2011-01-24 03:12:19
Writing application : mkvmerge v2.4.2 ('Oh My God') built on Jan 18 2009 17:30:28
Writing library : libebml v0.7.7 + libmatroska v0.8.1
Video #1
ID : 1
Format : AVC
Format/Info : Advanced Video Codec
Format profile : [email protected]
Format settings, CABAC : Yes
Format settings, ReFrames : 1 frame
Muxing mode : Container [email protected]
Codec ID : V_MPEG4/ISO/AVC
Duration : 2h 2mn
Bit rate : 3 628 Kbps
Nominal bit rate : 3 773 Kbps
Width : 1 280 pixels
Height : 532 pixels
Display aspect ratio : 2.40:1
Frame rate : 23.976 fps
Resolution : 24 bits
Colorimetry : 4:2:0
Scan type : Progressive
Bits/(Pixel*Frame) : 0.222
Stream size : 3.09 GiB (73%)
Title : Ocean's Thirteen (2007) 720p.Tr_01.Video.1280x532-3773.[HURTOM] by DiGen
Writing library : core 68 r1195bm 5d75a9b
Encoding settings : cabac=1 / ref=1 / deblock=1:0:0 / analyse=0x3:0x13 / me=umh / subme=7 / psy_rd=0.0:0.0 / mixed_ref=0 / me_range=16 / chroma_me=1 / trellis=1 / 8x8dct=1 / cqm=0 / deadzone=21,11 / chroma_qp_offset=0 / threads=1 / thread_queue=1 / nr=0 / decimate=1 / mbaff=0 / bframes=0 / keyint=250 / keyint_min=25 / scenecut=40 / rc=abr / bitrate=3773 / ratetol=1.0 / qcomp=0.60 / qpmin=10 / qpmax=51 / qpstep=4 / ip_ratio=1.40 / aq=2:1.00
Language : English
Audio #2
ID : 2
Format : AC-3
Format/Info : Audio Coding 3
Codec ID : A_AC3
Duration : 2h 2mn
Bit rate mode : Constant
Bit rate : 384 Kbps
Channel(s) : 6 channels
Channel positions : Front: L C R, Surround: L R, LFE
Sampling rate : 48.0 KHz
Stream size : 336 MiB (8%)
Title : Ocean's Thirteen (2007).720p.Tr_02.A-UKR_AC3-384.[HURTOM] by DiGen
Language : Ukrainian
Audio #3
ID : 3
Format : AC-3
Format/Info : Audio Coding 3
Codec ID : A_AC3
Duration : 2h 2mn
Bit rate mode : Constant
Bit rate : 640 Kbps
Channel(s) : 6 channels
Channel positions : Front: L C R, Surround: L R, LFE
Sampling rate : 48.0 KHz
Stream size : 559 MiB (13%)
Title : Ocean's Thirteen (2007).720p.Tr_03.A-Eng_AC3-640.[HURTOM] by DiGen
Language : English
Audio #4
ID : 4
Format : AC-3
Format/Info : Audio Coding 3
Format profile : Dolby Digital
Codec ID : A_AC3
Duration : 2h 2mn
Bit rate mode : Constant
Bit rate : 192 Kbps
Channel(s) : 2 channels
Channel positions : L R
Sampling rate : 48.0 KHz
Stream size : 168 MiB (4%)
Title : Ocean's Thirteen (2007).720p.Tr_04.A-Eng_AC3-192_commentari.[HURTOM] by DiGen
Language : English
Text #5
ID : 5
Format : UTF-8
Codec ID : S_TEXT/UTF8
Codec ID/Info : UTF-8 Plain Text
Title : Ocean's Thirteen (2007).720p.Tr_05.Sub-UKR.srt.By DiGen
Language : Ukrainian
Text #6
ID : 6
Format : UTF-8
Codec ID : S_TEXT/UTF8
Codec ID/Info : UTF-8 Plain Text
Title : Ocean's Thirteen (2007).720p.Tr_06.Sub-eng.srt.By DiGen
Language : English
Text #7
ID : 7
Format : UTF-8
Codec ID : S_TEXT/UTF8
Codec ID/Info : UTF-8 Plain Text
Title : Ocean's Thirteen (2007).720p.Tr_07.Sub-Ger.srt.By DiGen
Language : German
Text #8
ID : 8
Format : UTF-8
Codec ID : S_TEXT/UTF8
Codec ID/Info : UTF-8 Plain Text
Title : Ocean's Thirteen (2007).720p.Tr_08.Sub-Ita.srt.By DiGen
Language : Italian
Text #9
ID : 9
Format : UTF-8
Codec ID : S_TEXT/UTF8
Codec ID/Info : UTF-8 Plain Text
Title : Ocean's Thirteen (2007).720p.Tr_09.Sub-Fre.srt.By DiGen
Language : French
Text #10
ID : 10
Format : UTF-8
Codec ID : S_TEXT/UTF8
Codec ID/Info : UTF-8 Plain Text
Title : Ocean's Thirteen (2007).720p.Tr_10.Sub-Por.srt.By DiGen
Language : Portuguese
Text #11
ID : 11
Format : UTF-8
Codec ID : S_TEXT/UTF8
Codec ID/Info : UTF-8 Plain Text
Title : Ocean's Thirteen (2007).720p.Tr_11.Sub-Spa.srt.By DiGen
Language : Spanish
Text #12
ID : 12
Format : UTF-8
Codec ID : S_TEXT/UTF8
Codec ID/Info : UTF-8 Plain Text
Title : Ocean's Thirteen (2007).720p.Tr_12.Sub-Swe.srt.By DiGen
Language : Swedish
Text #13
ID : 13
Format : UTF-8
Codec ID : S_TEXT/UTF8
Codec ID/Info : UTF-8 Plain Text
Title : Ocean's Thirteen (2007).720p.Tr_13.Sub-Nor.srt.By DiGen
Language : Norwegian
Text #14
ID : 14
Format : UTF-8
Codec ID : S_TEXT/UTF8
Codec ID/Info : UTF-8 Plain Text
Title : Ocean's Thirteen (2007).720p.Tr_14.Sub-Fin.srt.By DiGen
Language : Finnish
Text #15
ID : 15
Format : UTF-8
Codec ID : S_TEXT/UTF8
Codec ID/Info : UTF-8 Plain Text
Title : Ocean's Thirteen (2007).720p.Tr_15.Sub-Dan.srt.By DiGen
Language : Danish
Text #16
ID : 16
Format : UTF-8
Codec ID : S_TEXT/UTF8
Codec ID/Info : UTF-8 Plain Text
Title : Ocean's Thirteen (2007).720p.Tr_16.Sub-Dut.srt.By DiGen
Language : Dutch
Світлини:





Подяки:
Brut за Українізований постер
_oles за гарне оформлення

Інші релізи:
720 х 304

Особиста оцінка: 10 - без зайвих вагань рекомендую всім!

Джерело: власний ріп(відео перетиснув через розрахунок коментарів на 6-тиканальний звук)
Реліз підготовлено в рамках проекту ВІДЕО ГУРТОМ
Мої наступні релізи:
HD 1080p/720p:

01. Ворог держави/Enemy of the State 720р - буду починати (чекаю доріжку від 1+1)
02. Льодовиковий період 2/Ice Age 2 720p (якщо буде укр. доріжка)
03. Достукатися до небес/Knockin' On Heaven's Door 720p (якщо буде укр. доріжка)
04. Люди в чорному 2/Men in Black 2 720/1080p
05. Форсаж 1, 2, 3/The Fast and the Furious 1, 2, 3 720p - почну завтра/післязавтра
06. Autumn in New York 720р
07. Елізабеттаун/Elizabethtown 720р - почав
08. Співучасник / Collateral (2004) - як тільки буде укр. звук
09. Сайлент Хіл/Silent Hill (2006) 720p - не можу знайти УКР, доріжку.
10. Робокоп 1,2,3 (1987,1990,1993) 720p
11. Смертельні перегони/Death Race (2008) 720p
12. Святий/The Saint 1080p - готовий, лише треба звук підігнати та оформити
13. Boondock Saints.1999.BD.Rip.720p - якщо буде укр.доріжка
14. Boondock Saints II.All Saints Day.BD.Rip.720p - якщо буде укр.доріжка
15. Rain.Man.1988.720p

:

01. Формула 51/Formula 51
02. Коефіцієнт інтелекту/IQ (1994) - /720p


Срібний реліз (на рейтинг впливає 50% завантаженого)
 Трекер:    Зареєстрований   

Завантажити / скачати фільм українською



відео для новачків



 Зареєстрований:   2011-01-28 03:56
 Розмір:   12.62 GB 
 Оцінка фільму:   9.8/10 (Голосів: 111)
   
QUARESMA177 
VIP


З нами з: 27.04.09
Востаннє: 02.12.16
Повідомлень: 415

2011-01-11 14:03  
цікаво, якщо таки дубляж
ua2004 
Відео Гуртом - фільмокрай
Відео Гуртом - фільмокрай


З нами з: 31.01.08
Востаннє: 24.11.16
Повідомлень: 3128

2011-01-14 19:44  
Перші 2 частини точно мають закадр. Третя, здається теж. Озвучка Нового каналу.
DiGen 
Модератор HD та координатор Команди HD
Модератор HD та координатор Команди HD


З нами з: 12.11.09
Востаннє: 24.06.13
Повідомлень: 1452

2011-01-14 20:51  
ua2004
Я не брав звук з Гуртом.

ua2004 
Відео Гуртом - фільмокрай
Відео Гуртом - фільмокрай


З нами з: 31.01.08
Востаннє: 24.11.16
Повідомлень: 3128

2011-01-14 22:15  
DiGen написано:
Я не брав звук з Гуртом.

Яка різниця? Все одно перші 2 частини ніколи не були дубльовані. Їх показували на ТБ в закадровій озвучці. На рахунок третьої, здається укр. дубляжу теж до неї не існує. Лише закадр.

rkononenko 
Відео Гуртом - субтитрування
Відео Гуртом - субтитрування


З нами з: 24.02.09
Востаннє: 01.12.16
Повідомлень: 1137

2011-01-28 16:54  
чийого каналу переклад?
DiGen 
Модератор HD та координатор Команди HD
Модератор HD та координатор Команди HD


З нами з: 12.11.09
Востаннє: 24.06.13
Повідомлень: 1452

2011-01-28 18:35  
На жаль невідомо.
Людина, що виклала реліз на іноземномовному трекері, вказала що є лише рос та англійська (дтс) доріжки, але виявилось, що запхано було 3 рос. 2англ. + недома доріжка, яка, як виявилось, була Українською (єдиний підпис - .......OR.384.)

Віктор 
Відео Гуртом - субтитрування
Відео Гуртом - субтитрування


З нами з: 09.01.10
Востаннє: 02.12.16
Повідомлень: 8661

2011-01-28 21:21  
Та з Гуртом доріжки полюбе)) а записано з Інтеру.
DiGen 
Модератор HD та координатор Команди HD
Модератор HD та координатор Команди HD


З нами з: 12.11.09
Востаннє: 24.06.13
Повідомлень: 1452

2011-01-28 22:40  
Привіт!
Можливо й так, але писати навмання не можу (переглянути фільм теж - зараз жодної вільної хв. - цикнув в 5-ти місцях, почув к-ть акторів на озвучці і записав + з тих місць і світлини зробив), тому написав на основі такого мінітесту

exwest1 
Новенький


З нами з: 07.01.11
Востаннє: 02.12.16
Повідомлень: 13

2011-01-31 11:22  
Цікаво, а 14 друзів Оушена будуть?
dr_dimich 
Свій


З нами з: 23.12.09
Востаннє: 02.12.16
Повідомлень: 144

2011-02-05 10:28  
в "Тринадцять друзів Оушена" є моменти на яких забагато червоного кольору, чи то у мене така проблема
basikuacom 
Новенький


З нами з: 31.01.12
Востаннє: 31.01.12
Повідомлень: 1

2012-01-31 07:14  
Дайте швидкості Wink (2)
DiGen 
Модератор HD та координатор Команди HD
Модератор HD та координатор Команди HD


З нами з: 12.11.09
Востаннє: 24.06.13
Повідомлень: 1452

2012-01-31 08:07  
basikuacom, невже більше мегабіта це занажто мало?
sn1kersua 
Новенький


З нами з: 03.05.12
Востаннє: 14.08.16
Повідомлень: 20

2012-06-05 01:59  
Розділіть якось ці частини якщо можна
DiGen 
Модератор HD та координатор Команди HD
Модератор HD та координатор Команди HD


З нами з: 12.11.09
Востаннє: 24.06.13
Повідомлень: 1452

2012-06-07 20:52  
sn1kersua написано:
Розділіть якось ці частини якщо можна

??????????????7
Тобто?

sn1kersua 
Новенький


З нами з: 03.05.12
Востаннє: 14.08.16
Повідомлень: 20

2012-10-14 11:31  
DiGenDiGen незважай, протупив)
Віктор Багряний 
VIP


З нами з: 20.08.12
Востаннє: 01.12.16
Повідомлень: 277

2012-12-01 10:16  
Субтитри до 13 друзів виконані кремлівською агентурою
Віктор Багряний 
VIP


З нами з: 20.08.12
Востаннє: 01.12.16
Повідомлень: 277

2012-12-30 18:19  
Відредаговані субтитри до "Тринадцяти друзів Оушена" розміщені на http://www.opensubtitles.org /OCEAN'S_13/
Elektrodd 
Частий відвідувач


З нами з: 12.01.13
Востаннє: 02.12.16
Повідомлень: 31

2013-05-18 16:24  
Чудові усі три частини! Я не змарнував жодної хвилини, переглядаючи ці фільми!
Рекомендую усім.

pupicucek 
Новенький


З нами з: 13.04.13
Востаннє: 04.05.15
Повідомлень: 2

2014-06-02 17:09  
Дякую друзі сідере!
brutalsuperman 
Новенький


З нами з: 18.08.14
Востаннє: 22.11.16
Повідомлень: 2

2015-12-28 01:41  
Роздача ще жива?
kino. 
Модератор відео


З нами з: 27.06.10
Востаннє: 02.12.16
Повідомлень: 2900

2015-12-28 06:47  
brutalsuperman написано:
Роздача ще жива?

так

Ваш часовий пояс: GMT + 2 Години

Нова тема   Відповісти