Завантажити та скачати торренти українською


Коллежский Асессор - В.С.С.Ы.К.И. ; Военная музыка (2001) [APE] | Avantgarde Psyhedelic Rock

Нові коментарі

Нова тема   Відповісти
Останній раз роздавалося weber (2012-11-08)
Автор Повідомлення
Lev 
VIP


З нами з: 14.10.09
Востаннє: 28.11.16
Повідомлень: 1819

2011-01-10 18:34  
Коллежский Асессор - В.С.С.Ы.К.И. ; Военная музыка (2001) [APE] | Avantgarde Psyhedelic Rock



Стиль: Avantgarde Psyhedelic Rock
Країна, місто: Україна, Київ
Сайти: Офіційний сайт
Видавець: Gogol 1 (division of Mysteria Publishing, Росія)
Виконавці:
Василь Гойденко - гітари, вокали, музика, тексти
Гліб Бутузов - соло-гітара
Олександр Києвцев - бас-гітара
Олексій Ринденко - барабани

Пісні:
    В.С.С.Ы.К.И. :

    01. Вступление (01:51)
    02. Прощай, Родина (03:46)
    03. Иван-Шейх (03:03)
    04. Вот и все (03:03)
    05. Клавдій, червоний дезертир (02:35)
    06. Мукулатура (02:26)
    07. Я шелковый (02:30)
    08. 15 лет за гениальность (02:03)
    09. Любовь килобая (02:58)
    10. Чипполино в Москве (04:45)
    11. Лягай (02:55)
    12. На Бессарабке, в очереди за маком (02:58)
    13. Вступление II (01:48)

    Военная музыка :

    14. Спи дома (03:15)
    15. Шиш (03:40)
    16. Рубин Зихель (02:48)
    17. Всем.Всем.Всем (02:43)
    18. Генацвали (03:17)


Тривалість: 00:52:21
Мова: російська, окрім : українська (5), інстр. (1, 13)
Аудіо-кодек: APE
Бітрейт: 697 кб/с
Джерело: ріп від ley-barmaley
Додаткова інформація:
Обидва альбоми цього диску було записано у 1987 та 1988 рр. у Києві, на студії Будинку вчених.
log
Exact Audio Copy V0.99 prebeta 5 from 4. May 2009

Отчёт EAC об извлечении, выполненном 5. октября 2010, 22:47

Коллежский Асессор / В.С.С.Ы.К.И. + Военная Музыка (Rip by ley-barmaley)

Дисковод: ASUS DRW-1814BL Adapter: 0 ID: 0

Режим чтения : Достоверность
Использование точного потока : Да
Отключение кэша аудио : Да
Использование указателей C2 : Нет

Коррекция смещения при чтении : 6
Способность читать области Lead-in и Lead-out : Нет
Заполнение пропущенных сэмплов тишиной : Да
Удаление блоков с тишиной в начале и конце : Нет
При вычислениях CRC использовались нулевые сэмплы : Да
Интерфейс : Встроенный Win32-интерфейс для Win NT/2000

Выходной формат : Внутренние WAV-операции
Формат сэмплов : 44.100 Гц; 16 бит; стерео

TOC извлечённого CD

Трек | Старт | Длительность | Начальный сектор | Конечный сектор
---------------------------------------------------------------------
1 | 0:00.00 | 1:51.13 | 0 | 8337
2 | 1:51.13 | 3:46.02 | 8338 | 25289
3 | 5:37.15 | 3:03.07 | 25290 | 39021
4 | 8:40.22 | 3:00.70 | 39022 | 52591
5 | 11:41.17 | 2:34.66 | 52592 | 64207
6 | 14:16.08 | 2:26.35 | 64208 | 75192
7 | 16:42.43 | 2:30.07 | 75193 | 86449
8 | 19:12.50 | 2:02.43 | 86450 | 95642
9 | 21:15.18 | 2:58.20 | 95643 | 109012
10 | 24:13.38 | 4:44.53 | 109013 | 130365
11 | 28:58.16 | 2:54.47 | 130366 | 143462
12 | 31:52.63 | 2:57.48 | 143463 | 156785
13 | 34:50.36 | 1:47.62 | 156786 | 164872
14 | 36:38.23 | 3:15.32 | 164873 | 179529
15 | 39:53.55 | 3:39.65 | 179530 | 196019
16 | 43:33.45 | 2:47.42 | 196020 | 208586
17 | 46:21.12 | 2:42.48 | 208587 | 220784
18 | 49:03.60 | 3:16.62 | 220785 | 235546

Характеристики диапазона извлечения и сообщения об ошибках

Выбранный диапазон

Имя файла G:\Коллежский Асессор - В.С.С.Ы.К.И. + Военная Музыка (Rip by ley-barmaley).wav

Пиковый уровень 99.6 %
Качество диапазона 100.0 %
CRC копии 9F2B5025
Копирование... OK

Ошибок не произошло

AccurateRip: сводка

Трек 1 нет в базе данных
Трек 2 нет в базе данных
Трек 3 нет в базе данных
Трек 4 нет в базе данных
Трек 5 нет в базе данных
Трек 6 нет в базе данных
Трек 7 нет в базе данных
Трек 8 нет в базе данных
Трек 9 нет в базе данных
Трек 10 нет в базе данных
Трек 11 нет в базе данных
Трек 12 нет в базе данных
Трек 13 нет в базе данных
Трек 14 нет в базе данных
Трек 15 нет в базе данных
Трек 16 нет в базе данных
Трек 17 нет в базе данных
Трек 18 нет в базе данных

Ни одного трека нет в базе AccurateRip

Конец отчёта
Приблизно у 1987-88 роках в Україні раптово почався ренесанс аванаградного року. Попри всяку логіку концерти альтернативної музики збирали переповнені зали. Флагманом нових ідей стало творча спілка «Рок-Артіль», що мала у своєму складі три київські групи : «Воплі Відоплясова», «Колезький Асесор» та «Раббота Хо».

Олександр Кушнір, автор книжки "100 магнітоальбомів совєтського року"


Вони виконують музику, яку до них ще ніхто не грав. Геніальні уми на голому місці.

Олексій Дегтяр 'Макет', лідер «Ivanov Down».


Увага! Роздача містить також повний комплект сканів поліграфії з текстами пісень.



Якщо Ви справді бажаєте підтримати українське - після прослуховування, якщо музика вам сподобалась, придбайте ліцензійний диск. Підтримаймо вітчизняних виконавців!


Срібний реліз (на рейтинг впливає 50% завантаженого)
 Трекер:    Зареєстрований   

Завантажити / скачати українську музику



відео для новачків



 Зареєстрований:   2011-01-10 18:34
 Розмір:   270 MB 
 Оцінка музики:   8.7/10 (Голосів: 6)
   
Ваш часовий пояс: GMT + 2 Години

Нова тема   Відповісти