Завантажити та скачати торренти українською


Коллежский Асессор - Sex Bomben Auf Engelland (2001) [APE] | Avantgarde Psyhedelic Rock

Нові коментарі

Нова тема   Відповісти
Останній раз роздавалося weber (2012-11-08)
Автор Повідомлення
Lev 
VIP


З нами з: 14.10.09
Востаннє: 09.12.16
Повідомлень: 1819

2011-01-10 16:03  
Коллежский Асессор - Sex Bomben Auf Engelland (2001) [APE] | Avantgarde Psyhedelic Rock



Стиль: Avantgarde Psyhedelic Rock
Країна, місто: Україна, Київ
Сайти: Офіційний сайт
Видавець: Igun Shakor Records (Росія)
Виконавці:
Василь Гойденко - гітари, вокали
Гліб Бутузов - гітара
Олександр Каханівський - бас-гітара
Олексій Ринденко - барабани

музика і тексти Василя Гойденка

у створенні альбому брали участь
Наталя Мєсяц та Олександр Києвцев
Пісні:
    01. Торжественный марш по случаю 19-й годовщины "Коллежского Асессора" (08:00)
    02. Спутник Солнца - Земля (06:24)
    03. Сомбреро Суфия (08:56)
    04. Конфетки челом били (06:13)
    05. Жили-были (08:49)
    06. Болезнь. Старость. Смерть. (Свобода. Равенство. Братство) (08:59)
    07. Я не знаю как (06:39)
    08. Казачок (03:32)
    09. Тайный японский секс (07:45)

Тривалість: 01:05:17
Мова: російська (2-9), інстр. (1)
Аудіо-кодек: FLAC
Бітрейт: 669 кб/с
Джерело: ріп від ley-barmaley
Додаткова інформація:
log
Exact Audio Copy V0.99 prebeta 5 from 4. May 2009

Отчёт EAC об извлечении, выполненном 25. сентября 2010, 18:18

Коллежский Асессор / Sex Bomben Auf Engelland (Rip by ley-barmaley)

Дисковод: ASUS DRW-1814BL Adapter: 0 ID: 0

Режим чтения : Достоверность
Использование точного потока : Да
Отключение кэша аудио : Да
Использование указателей C2 : Нет

Коррекция смещения при чтении : 6
Способность читать области Lead-in и Lead-out : Нет
Заполнение пропущенных сэмплов тишиной : Да
Удаление блоков с тишиной в начале и конце : Нет
При вычислениях CRC использовались нулевые сэмплы : Да
Интерфейс : Встроенный Win32-интерфейс для Win NT/2000

Выходной формат : Внутренние WAV-операции
Формат сэмплов : 44.100 Гц; 16 бит; стерео

TOC извлечённого CD

Трек | Старт | Длительность | Начальный сектор | Конечный сектор
---------------------------------------------------------------------
1 | 0:00.00 | 8:00.12 | 0 | 36011
2 | 8:00.12 | 6:23.39 | 36012 | 64775
3 | 14:23.51 | 8:55.63 | 64776 | 104963
4 | 23:19.39 | 6:12.69 | 104964 | 132932
5 | 29:32.33 | 8:48.46 | 132933 | 172578
6 | 38:21.04 | 8:58.49 | 172579 | 212977
7 | 47:19.53 | 6:39.04 | 212978 | 242906
8 | 53:58.57 | 3:31.65 | 242907 | 258796
9 | 57:30.47 | 7:44.73 | 258797 | 293669

Характеристики диапазона извлечения и сообщения об ошибках

Выбранный диапазон

Имя файла G:\Коллежский Асессор - Sex Bomben Auf Engelland (Rip by ley-barmaley).wav

Пиковый уровень 99.8 %
Качество диапазона 99.9 %
CRC копии 80173866
Копирование... OK

Ошибок не произошло

AccurateRip: сводка

Трек 1 нет в базе данных
Трек 2 нет в базе данных
Трек 3 нет в базе данных
Трек 4 нет в базе данных
Трек 5 нет в базе данных
Трек 6 нет в базе данных
Трек 7 нет в базе данных
Трек 8 нет в базе данных
Трек 9 нет в базе данных

Ни одного трека нет в базе AccurateRip

Конец отчёта
Приблизно у 1987-88 роках в Україні раптово почався ренесанс аванаградного року. Попри всяку логіку концерти альтернативної музики збирали переповнені зали. Флагманом нових ідей стало творча спілка «Рок-Артіль», що мала у своєму складі три київські групи : «Воплі Відоплясова», «Колезький Асесор» та «Раббота Хо».

Олександр Кушнір, автор книжки "100 магнітоальбомів совєтського року"


Вони виконують музику, яку до них ще ніхто не грав. Геніальні уми на голому місці.

Олексій Дегтяр 'Макет', лідер «Ivanov Down».


Увага! Роздача містить також повний комплект сканів поліграфії з текстами пісень.



Якщо Ви справді бажаєте підтримати українське - після прослуховування, якщо музика вам сподобалась, придбайте ліцензійний диск. Підтримаймо вітчизняних виконавців!


Срібний реліз (на рейтинг впливає 50% завантаженого)
 Трекер:    Зареєстрований   

Завантажити / скачати українську музику



відео для новачків



 Зареєстрований:   2011-01-10 16:03
 Розмір:   319 MB 
 Оцінка музики:   7/10 (Голосів: 8)
   
Lev 
VIP


З нами з: 14.10.09
Востаннє: 09.12.16
Повідомлень: 1819

2011-01-10 16:11  
Хто відважиться слухати вперше - враховуйте, що альбом записано у підвальній Lo-Fi-стилістиці з "даунськими" вокалами і взагалі це один з найекспериментальніших дисків, створених в Україні Wide grin
imonko 
Відео Гуртом - фільмокрай
Відео Гуртом - фільмокрай


З нами з: 20.07.08
Востаннє: 31.10.16
Повідомлень: 7309

2011-01-10 18:32  
було б в мп3 не відмовився б послухати(
weber 
Почесний гуртомівець


З нами з: 03.08.08
Востаннє: 11.12.16
Повідомлень: 7003

2011-01-10 23:23  
Lev, спробуємо.
Lev 
VIP


З нами з: 14.10.09
Востаннє: 09.12.16
Повідомлень: 1819

2011-01-11 21:40  
imonko

може, дещо згодом створю тут дискографію їхню в тому форматі Wink (1)

imonko 
Відео Гуртом - фільмокрай
Відео Гуртом - фільмокрай


З нами з: 20.07.08
Востаннє: 31.10.16
Повідомлень: 7309

2011-11-18 21:34  
Lev написано:
може, дещо згодом створю тут дискографію їхню в тому форматі 

типу може не пройшло? (((

Ваш часовий пояс: GMT + 2 Години

Нова тема   Відповісти