Завантажити та скачати торренти українською


Людина-вовк / The Wolfman [Unrated Edition] (2010) 720p Ukr/Eng | Sub Ukr/Eng

Нові коментарі

Нова тема   Відповісти
Автор Повідомлення
braveboy 
Відео Гуртом - команда HD
Відео Гуртом - команда HD


З нами з: 15.06.10
Востаннє: 29.10.16
Повідомлень: 958

2011-01-09 01:50  

Людина-вовк / The Wolfman [Unrated Edition] (2010) 720p
Ukr/Eng | Sub Ukr/Eng


Людина-вовк / The Wolfman [Unrated Edition] (2010) 720p Ukr/Eng | Sub Ukr/Eng

«Всередені лише страх»

Жанр: містика, триллер
Країна: США, Великобританія




Кіностудія / кінокомпанія: Universal Picture
Режисер: Джо Джонстон
Актори: Бенісіо Дель Торо, Емілі Блант, Ентоні Хопкінс, Х'юго Уівінг, Джеральдін Чаплін

Бюджет: $ 150 000 000
Збори в США: $ 61979680
Збори у світі:+ $ 80 182 231 = $ 142 161 911
Прем'єра (світ): 4 листопада 2009
Реліз на Blu-Ray: 22 червня 2010, «Юніверсал Пікчерс Рус »


Сюжет:
Дитинство Лоуренса (Дель Торо) позначилося загадковою смертю його матері. Прагнучи пережити трагедію, хлопець на довгі роки покидає дім, але несподівана звістка про зникнення брата повертає його назад. Лоуренс проводить власне розслідування і виявляє, що над родиною висить страшна загроза, а причиною є він сам! Давнє прокляття перетворює звичайного хлопця на могутнього кровожерливого звіра…

Чи знаєте ви, що ...

• Фільм повинен був знімати Марк Романек, але він залишив проект через фінансові розбіжності.
• Грім людини-вовка накладали на Бенісіо Дель Торо протягом 3 годин і знімали протягом години.
• Гример Рік Бейкер спочатку зняв зняв маску з обличчя Бенісіо дель Торо, а потім виліпив на ній вовчу морду. На основі зліпка він виготовив зі склопластику щось на кшталт ливарної форми і заповнив її полімерної піною. Коли латекс схопився, вийшли елементи маски, які можна було зміцнити на обличчі актора, - капюшон з вовчими вухами і лицьова частина з виступаючою мордою. Залишалося лише накласти пасма натуральної вовни Яка.


Тривалість: 01:59:06
Якість: 720p
Відео:
кодек:
розмір кадру: 1280 х 692
бітрейт: 6195 кб/с

Аудіо # 1:
мова: українська |Line|
переклад: професійний дубльований
кодек: 5.1
бітрейт: 448 кб/с

Аудіо # 2:
мова:англійська
переклад: оригінал
кодек: 5.1
бітрейт: 1509 кб/с

Субтитри:
мова: українська
тип: програмні (м'які)
формат: *.srt

Субтитри:
мова: англійська
тип: програмні (м'які)
формат: *.srt
720p by braveboy
log

[info]: frame I:1311 Avg QP:13.73 size:139011
[info]: frame P:35317 Avg QP:14.92 size: 59049
[info]: frame B:134696 Avg QP:16.79 size: 24193
[info]: consecutive B-frames: 1.7% 1.8% 8.4% 11.8% 15.6% 51.3% 9.4%
[info]: mb I I16..4: 7.9% 75.4% 16.7%
[info]: mb P I16..4: 1.9% 16.9% 2.3% P16..4: 33.5% 23.6% 20.0% 1.0% 0.3% skip: 0.5%
[info]: mb B I16..4: 0.2% 2.1% 0.3% B16..8: 39.7% 15.9% 5.0% direct: 7.9% skip:28.9% L0:48.0% L1:42.9% BI: 9.2%
[info]: 8x8 transform intra:80.2% inter:55.2%
[info]: coded y,uvDC,uvAC intra: 91.4% 88.1% 71.7% inter: 38.9% 36.7% 14.4%
[info]: i16 v,h,dc,p: 22% 10% 17% 51%
[info]: i8 v,h,dc,ddl,ddr,vr,hd,vl,hu: 9% 6% 7% 11% 14% 14% 14% 12% 13%
[info]: i4 v,h,dc,ddl,ddr,vr,hd,vl,hu: 20% 5% 4% 10% 14% 12% 13% 11% 13%
[info]: i8c dc,h,v,p: 49% 20% 16% 14%
[info]: Weighted P-Frames: Y:11.3% UV:6.6%
[info]: ref P L0: 41.3% 6.7% 20.1% 8.7% 7.6% 5.7% 5.5% 3.4% 0.9% 0.1%
[info]: ref B L0: 64.1% 16.0% 8.5% 4.9% 3.6% 2.1% 0.9%
[info]: ref B L1: 89.9% 10.1%
[info]: kb/s:6187.15
MediaInfo

Format : Matroska
Format version : Version 4 / Version 2
File size : 6.78 GiB
Duration : 1h 59mn
Overall bit rate : 8 146 Kbps
Movie name : The Wolfman [Unrated Edition] (2010) 720p by braveboy
Encoded date : UTC 2013-04-16 03:00:28
Writing application : mkvmerge v6.1.0 ('Old Devil') built on Mar 2 2013 14:32:37
Writing library : libebml v1.3.0 + libmatroska v1.4.0

Video
ID : 1
Format : AVC
Format/Info : Advanced Video Codec
Format profile : [email protected]
Format settings, CABAC : Yes
Format settings, ReFrames : 8 frames
Codec ID : V_MPEG4/ISO/AVC
Duration : 1h 59mn
Bit rate : 6 195 Kbps
Width : 1 280 pixels
Height : 692 pixels
Display aspect ratio : 1.85:1
Frame rate mode : Constant
Frame rate : 23.976 fps
Color space : YUV
Chroma subsampling : 4:2:0
Bit depth : 8 bits
Scan type : Progressive
Bits/(Pixel*Frame) : 0.292
Stream size : 5.01 GiB (74%)
Title : The Wolfman [Unrated Edition] (2010) 720p by braveboy
Writing library : core 129 r2245 bc13772
Encoding settings : cabac=1 / ref=8 / deblock=1:-3:-3 / analyse=0x3:0x133 / me=umh / subme=9 / psy=1 / psy_rd=1.00:0.00 / mixed_ref=1 / me_range=24 / chroma_me=1 / trellis=1 / 8x8dct=1 / cqm=0 / deadzone=21,11 / fast_pskip=0 / chroma_qp_offset=-2 / threads=6 / lookahead_threads=1 / sliced_threads=0 / nr=0 / decimate=0 / interlaced=0 / bluray_compat=0 / constrained_intra=0 / bframes=6 / b_pyramid=2 / b_adapt=2 / b_bias=0 / direct=1 / weightb=1 / open_gop=0 / weightp=2 / keyint=240 / keyint_min=23 / scenecut=40 / intra_refresh=0 / rc=2pass / mbtree=0 / bitrate=6195 / ratetol=1.0 / qcomp=0.60 / qpmin=10 / qpmax=51 / qpstep=4 / cplxblur=20.0 / qblur=0.5 / ip_ratio=1.40 / pb_ratio=1.30 / aq=1:1.00
Default : Yes
Forced : No

Audio #1
ID : 2
Format : AC-3
Format/Info : Audio Coding 3
Mode extension : CM (complete main)
Format settings, Endianness : Big
Codec ID : A_AC3
Duration : 1h 59mn
Bit rate mode : Constant
Bit rate : 448 Kbps
Channel(s) : 6 channels
Channel positions : Front: L C R, Side: L R, LFE
Sampling rate : 48.0 KHz
Bit depth : 16 bits
Compression mode : Lossy
Stream size : 382 MiB (5%)
Title : 5.1 @ 448 kbps [Line]
Language : Ukrainian
Default : Yes
Forced : No

Audio #2
ID : 3
Format :
Format/Info : Digital Theater Systems
Mode : 16
Format settings, Endianness : Big
Codec ID : A_DTS
Duration : 1h 59mn
Bit rate mode : Constant
Bit rate : 1 509 Kbps
Channel(s) : 6 channels
Channel positions : Front: L C R, Side: L R, LFE
Sampling rate : 48.0 KHz
Bit depth : 24 bits
Compression mode : Lossy
Stream size : 1.26 GiB (19%)
Title : 5.1 @ 1509 kbps
Language : English
Default : No
Forced : No

Text #1
ID : 4
Format : UTF-8
Codec ID : S_TEXT/UTF8
Codec ID/Info : UTF-8 Plain Text
Title : Full
Language : Ukrainian
Default : No
Forced : No

Text #2
ID : 5
Format : UTF-8
Codec ID : S_TEXT/UTF8
Codec ID/Info : UTF-8 Plain Text
Title : Full
Language : English
Default : No
Forced : No

Menu
00:00:00.000 : en:00:00:00.000
00:02:59.888 : en:00:02:59.888
00:13:34.188 : en:00:13:34.188
00:22:50.578 : en:00:22:50.578
00:27:39.283 : en:00:27:39.283
00:34:37.534 : en:00:34:37.534
00:40:50.490 : en:00:40:50.490
00:48:28.364 : en:00:48:28.364
00:52:23.557 : en:00:52:23.557
00:55:22.486 : en:00:55:22.486
01:00:49.187 : en:01:00:49.187
01:06:46.002 : en:01:06:46.002
01:09:41.010 : en:01:09:41.010
01:14:07.568 : en:01:14:07.568
01:22:06.463 : en:01:22:06.463
01:28:25.675 : en:01:28:25.675
01:34:25.910 : en:01:34:25.910
01:39:48.357 : en:01:39:48.357
01:44:55.956 : en:01:44:55.956
01:52:06.845 : en:01:52:06.845
Скріншоти:

Особиста оцінка: 8 - мені сподобалося


 Трекер:    Зареєстрований   

Завантажити / скачати фільм українською



відео для новачків



 Зареєстрований:   2013-04-16 05:36
 Розмір:   6.78 GB 
 Оцінка фільму:   9.5/10 (Голосів: 46)
   
Інші релізи
   Людина-вовк / The Wolfman (2010) Ukr/Eng | Sub Eng karvai0  2 / 0   2 GB   2012-12-14 23:25 
   Людина-вовк / The Wolfman (2010) [Unrated Edition] Skiff  5 / 0   1.46 GB   2010-05-26 20:52 
Lubus 
Частий відвідувач


З нами з: 28.06.09
Востаннє: 27.08.16
Повідомлень: 42

2011-01-10 18:56  
люди добрі, стане хтось на роздачу чи ні?
a014789 
Новенький


З нами з: 21.11.09
Востаннє: 08.07.16
Повідомлень: 20

2012-02-11 12:35  
Чув про цей фільм, треба обов`язково подивитися!

Додано через 22 хвилини 37 секунд:

На жаль, не качається Sad (1)

tk4chenko 
Частий відвідувач


З нами з: 25.03.10
Востаннє: 07.12.16
Повідомлень: 41

2013-01-06 13:32  
1080p коли очікується?
jaguar_arx 
Свій


З нами з: 27.08.12
Востаннє: 07.12.16
Повідомлень: 77

2013-04-16 06:47  
Я в кіно на нього ходив. Добрий фільм. Такий собі фільм вищого ґатунку. До шедевра не дотягує, але однозначно вартий перегляду і поганих вражень не залишить.
etreyo 
Новенький


З нами з: 09.01.09
Востаннє: 04.12.16
Повідомлень: 14

2013-04-17 12:51  
Цитата:
Грім людини-вовка
Грим
Purdun 
Свій


З нами з: 05.09.13
Востаннє: 29.08.16
Повідомлень: 82

2015-09-19 08:06  
Колись давно дивився, ще була тільки Театралка - більше 6-ти не міг дати, а от ця Режисерка - ця версія уже класна, тут ставлю 8. Для чого взагалі різали, мізків у авторів немає. Полюбому якби пустили в кт таку, то на 20 лимонів би, а може і більше зібрали капусти.
MrRyanCooper 
VIP


З нами з: 23.08.12
Востаннє: 08.12.16
Повідомлень: 282

2015-10-20 21:00  
Purdun
Скажу, що як тільки вийшла ліцуха, то тоді довелося дивитися з рос звуком і що ви думаєте - в рос варіанті дубляж вийшов на весь фільм. По-перше не знаю ще фільмів, щоб дубляж йшов на Реж версію, а по-друге, дивно, що у нас нема на весь фільм дубляжу.

Ваш часовий пояс: GMT + 2 Години

Нова тема   Відповісти