Завантажити та скачати торренти українською


Delia - Спогад (2010) [APE] | Symphonic Metal

Нові коментарі

Нова тема   Відповісти
Автор Повідомлення
PaGaN 
Частий відвідувач


З нами з: 01.09.09
Востаннє: 22.11.16
Повідомлень: 28

2011-01-08 12:52  
Delia - Спогад (2010) [APE] | Symphonic Metal



Стиль: Symphonic Metal
Країна, місто: Україна, Київ
Сайти: Офіційний сайт
Видавець: ЯОК Music
Виконавці:
Анастасія - вокал
Сергій - гітара
Михайло - бас
Віталій - барабани
Колишні учасники:
Олександр - клавішні
Лідія - клавішні (березень 2006 - листопад 2008)
Дмитро - бас (вересень 2005 - січень 2008)
Пісні:
    01. Lumen (Sub ala angeli)
    02. Я буду чекати завжди
    03. Забутий край
    04. Відрада
    05. Новий час
    06. Мертве місто
    07. Знайди мене
    08. Привид
    09. Втомилась
    10. Осіння мелодія
    11. Межа
    12. Твоє ім’я
    13. Спогад
    14. Ілюзія (Bonus Track)
    15. Melodia otonala (Bonus Track)

Тривалість: 01:01:16
Мова: українська (2-14), іспанська (15)
Аудіо-кодек: APE
Бітрейт: 967 кб/с
Джерело: LosslessClub, ріп vamp69
Додаткова інформація:
Українська група DELIA існує з вересня 2005 р. Красивий ліричний жіночий вокал, клавішні з симфонічним ухилом та качеві ритми - ключові елементи, на яких заснована музика DELIA. Але на кожному етапі творчого процесу музиканти намагаються знайти нове, більш цікаве звучання. Саме різноманітність матеріалу, креативний підхід до створення музики та виконання українською мовою і відокремлює групу DELIA серед багатьох українських колективів на важкій сцені.

Активна концертна та організаційна діяльність групи сприяє тому, що її ім'я стало відомим у різноманітних музичних колах України. DELIA - єдина важка група на Україні, що виступає наживо з хором.
.log - файл

Exact Audio Copy V0.99 prebeta 4 from 23. January 2008

EAC extraction logfile from 15. February 2010, 19:45

Delia / Spogad

Used drive : ASUS DRW-2014L1T Adapter: 3 ID: 0

Read mode : Secure
Utilize accurate stream : Yes
Defeat audio cache : Yes
Make use of C2 pointers : No

Read offset correction : 6
Overread into Lead-In and Lead-Out : No
Fill up missing offset samples with silence : Yes
Delete leading and trailing silent blocks : No
Null samples used in CRC calculations : Yes
Used interface : Native Win32 interface for Win NT & 2000

Used output format : Internal WAV Routines
Sample format : 44.100 Hz; 16 Bit; Stereo

TOC of the extracted CD

Track | Start | Length | Start sector | End sector
---------------------------------------------------------
1 | 0:00.00 | 1:57.00 | 0 | 8774
2 | 1:57.00 | 3:30.72 | 8775 | 24596
3 | 5:27.72 | 4:37.49 | 24597 | 45420
4 | 10:05.46 | 3:52.32 | 45421 | 62852
5 | 13:58.03 | 3:37.30 | 62853 | 79157
6 | 17:35.33 | 3:52.28 | 79158 | 96585
7 | 21:27.61 | 5:18.49 | 96586 | 120484
8 | 26:46.35 | 3:28.13 | 120485 | 136097
9 | 30:14.48 | 3:54.02 | 136098 | 153649
10 | 34:08.50 | 4:16.66 | 153650 | 172915
11 | 38:25.41 | 3:36.73 | 172916 | 189188
12 | 42:02.39 | 6:07.57 | 189189 | 216770
13 | 48:10.21 | 4:16.22 | 216771 | 235992
14 | 52:26.43 | 4:35.20 | 235993 | 256637
15 | 57:01.63 | 4:14.60 | 256638 | 275747

Range status and errors

Selected range

Filename F:\Музика\Новая папка\Delia - Spogad.wav

Peak level 100.0 %
Range quality 100.0 %
Copy CRC C0368774
Copy OK

No errors occurred

End of status report
Якщо Ви справді бажаєте підтримати українське - після прослуховування, якщо музика вам сподобалась, придбайте ліцензійний диск. Підтримаймо вітчизняних виконавців!


Срібний реліз (на рейтинг впливає 50% завантаженого)
 Трекер:    Зареєстрований   

Завантажити / скачати українську музику



відео для новачків



 Зареєстрований:   2011-01-08 12:52
 Розмір:   808 MB 
 Оцінка музики:   10/10 (Голосів: 12)
   
Tarasyk 
Відео Гуртом - фільмокрай
Відео Гуртом - фільмокрай


З нами з: 26.08.09
Востаннє: 28.11.16
Повідомлень: 5972

2011-01-08 13:31  
PaGaN, прохання глянути на цю роздачу: Delia - Спогад (2010) [MP3] ну і трошки поцупити звідти оформлення, а саме Видавець, Виконавці, Додаткова інформація (маю на увазі рецензію від УМКИ). Останнє за бажанням.

Ну і вкажіть Джерело, а також під спойлером наведіть вміст лог-файлу.

А, ну і ще за бажанням можна вказати посилання на цей альбом в мп3 і на кліпи.

Додано через 1 хвилину 26 секунд:

І ще мова там не всюди українська Wink (2)

оксана1909 
Свій


З нами з: 07.02.10
Востаннє: 12.06.15
Повідомлень: 122

2011-01-08 16:21  
Melodia otonala , здається, виконується італійською
Swirl 
Оцифрування книг Гуртом
Оцифрування книг Гуртом


З нами з: 12.10.09
Востаннє: 24.02.15
Повідомлень: 495

2011-01-08 17:28  
Ні, не італійська. Обговорювали тут. 
Tarasyk 
Відео Гуртом - фільмокрай
Відео Гуртом - фільмокрай


З нами з: 26.08.09
Востаннє: 28.11.16
Повідомлень: 5972

2011-01-09 09:52  
PaGaN, дякую за виправлення. От тільки, в графі джерело не варто давати активних посилань. Wink (1) Достатньо просто вказати назву ресурсу.
vamp69 
Поважний учасник


З нами з: 06.07.09
Востаннє: 30.11.16
Повідомлень: 173

2014-05-27 22:27  
А можна написати там де "Джерело" що ріп від мене
ssTAss 
Модератор музики


З нами з: 05.07.08
Востаннє: 02.12.16
Повідомлень: 10928

2014-05-27 22:35  
vamp69 написано:
А можна написати там де "Джерело" що ріп від мене

можна
написав

vamp69 
Поважний учасник


З нами з: 06.07.09
Востаннє: 30.11.16
Повідомлень: 173

2014-06-14 08:33  
ssTAss дякую
Oleksa9 
Поважний учасник


З нами з: 17.05.12
Востаннє: 01.12.16
Повідомлень: 225

2015-08-23 10:38  
клавіші
Офіційна сторінка гурту й досі немає українського варіанту..... лише ворожий та англійський.

Ваш часовий пояс: GMT + 2 Години

Нова тема   Відповісти