Завантажити та скачати торренти українською


Брати Блюзу - One Autumn Concert (live) (2007) [FLAC] | Ethno Jazz

Нові коментарі

Нова тема   Відповісти
Останній раз роздавалося bvz (2016-11-10)
Автор Повідомлення
romkop 
Новенький


З нами з: 26.05.09
Востаннє: 08.12.16
Повідомлень: 9

2011-01-04 21:15  
Брати Блюзу - One Autumn Concert (live) (2007) [FLAC] | Ethno Jazz



Стиль: Jazz Ethno
Країна, місто: Україна, Івано-Франківськ
Сайти: Офіційний сайт
Видавець: Атлантик
Пісні:
    1. piano (1)
    2. p.s. (script)
    3. just a moment (3)
    4. just a moment (2)
    5. flight: Vienna-Paris
    6. Rain? (beginning)
    7. Vienna Woods
    8. Rain? (continuation)
    9. piano (2)
    10. Rain? (end)
    11. Oj-ja or soundtrack
    12. Authentic life (part 1)
    13. piano (3)
Вміст лог-файлу

This log is created by Rubyripper, version 0.6.0
Website: http://code.google.com/p/rubyripper

Cdrom player used to rip:
Optiarc DVD RW AD-7560A DX06
Cdrom offset used: 6

Ripper used: cdparanoia
Matches required for all chunks: 2
Matches required for erroneous chunks: 2

Codec(s) used:
-flac -> --best -V (flac 1.2.1)

CDDB INFO

Artist = Брати Блюзу
Album = One Autumn Concert (live)
Year = 2007
Genre = Jazz
Tracks = 13 (13 selected)

01 - piano (1)
02 - p.s. (script)
03 - just a moment (3)
04 - just a moment (2)
05 - flight: Vienna-Paris
06 - Rain? (beginning)
07 - Vienna Woods
08 - Rain? (continuation)
09 - piano (2)
10 - Rain? (end)
11 - Oj-ja or soundtrack
12 - Authentic life (part 1)
13 - piano (3)

ADVANCED TOC ANALYSIS (with cdrdao)
...please be patient, this may take a while

STATUS

Starting to rip track 1, trial #1 (16 seconds)
Starting to rip track 1, trial #2 (10 seconds)
Analyzing files for mismatching chunks
Every chunk matched 2 times Happy
MD5 sum: b180f22273c473b46cba426f106e5bc5

Starting to rip track 2, trial #1 (77 seconds)
Starting to rip track 2, trial #2 (72 seconds)
Analyzing files for mismatching chunks
Every chunk matched 2 times Happy
MD5 sum: 05b4816830b6f558295d90c714f0dcdc

Starting to rip track 3, trial #1 (43 seconds)
Starting to rip track 3, trial #2 (38 seconds)
Analyzing files for mismatching chunks
Every chunk matched 2 times Happy
MD5 sum: e15e85709b484355cf3061fcfbd7318a

Starting to rip track 4, trial #1 (52 seconds)
Starting to rip track 4, trial #2 (47 seconds)
Analyzing files for mismatching chunks
Every chunk matched 2 times Happy
MD5 sum: 3f03f89b4167205f629e9042bc4003d9

Starting to rip track 5, trial #1 (58 seconds)
Starting to rip track 5, trial #2 (53 seconds)
Analyzing files for mismatching chunks
Every chunk matched 2 times Happy
MD5 sum: 0af2c52cbc7af5dc40d44cf36e7bb09a

The drive is spinning for more than 30 minutes.
Taking a timeout of 2 minutes to protect the hardware.
Starting to rip track 6, trial #1 (24 seconds)
Starting to rip track 6, trial #2 (19 seconds)
Analyzing files for mismatching chunks
Every chunk matched 2 times Happy
MD5 sum: c02caaca37db96879ec76aa3f27dee6b

Starting to rip track 7, trial #1 (69 seconds)
Starting to rip track 7, trial #2 (64 seconds)
Analyzing files for mismatching chunks
Every chunk matched 2 times Happy
MD5 sum: 22dffae69805127d1880f49c9c73bd14

Starting to rip track 8, trial #1 (24 seconds)
Starting to rip track 8, trial #2 (20 seconds)
Analyzing files for mismatching chunks
Every chunk matched 2 times Happy
MD5 sum: 380cbe38eef9c1f54862b2c1a7435839

Starting to rip track 9, trial #1 (15 seconds)
Starting to rip track 9, trial #2 (11 seconds)
Analyzing files for mismatching chunks
Every chunk matched 2 times Happy
MD5 sum: 69ed2db02158b42837b9fcf0801f0663

Starting to rip track 10, trial #1 (17 seconds)
Starting to rip track 10, trial #2 (12 seconds)
Analyzing files for mismatching chunks
Every chunk matched 2 times Happy
MD5 sum: 18e888ce85e98334c192dfb4ae363d1a

Starting to rip track 11, trial #1 (41 seconds)
Starting to rip track 11, trial #2 (37 seconds)
Analyzing files for mismatching chunks
Every chunk matched 2 times Happy
MD5 sum: 4a1e0635c371b58906a5c88b7ee3daa8

The drive is spinning for more than 30 minutes.
Taking a timeout of 2 minutes to protect the hardware.
Starting to rip track 12, trial #1 (42 seconds)
Starting to rip track 12, trial #2 (37 seconds)
Analyzing files for mismatching chunks
Every chunk matched 2 times Happy
MD5 sum: f0762f0e1b32e82302063a25ad5bdaea

Starting to rip track 13, trial #1 (10 seconds)
Starting to rip track 13, trial #2 (5 seconds)
Analyzing files for mismatching chunks
Every chunk matched 2 times Happy
MD5 sum: 208c2ee481fe2cabdeb68b4323b8eaab

RIPPING SUMMARY

All chunks were tried to match at least 2 times.
None of the tracks gave any problems
.CUE-файл

REM GENRE Jazz
REM DATE 2007
REM COMMENT "Rubyripper 0.6.0"
REM DISCID c00f660e
REM FREEDB_QUERY "c00f660e 14 150 2604 27871 42984 62498 86744 95259 127578 138224 143560 149688 170872 193131 207374 3944"
PERFORMER "Брати Блюзу"
TITLE "One Autumn Concert (live)"
FILE "01 - piano (1).flac" WAVE
TRACK 01 AUDIO
TITLE "piano (1)"
PERFORMER "Брати Блюзу"
INDEX 01 00:00:00
FILE "02 - p.s. (script).flac" WAVE
TRACK 02 AUDIO
TITLE "p.s. (script)"
PERFORMER "Брати Блюзу"
INDEX 01 00:00:00
FILE "03 - just a moment (3).flac" WAVE
TRACK 03 AUDIO
TITLE "just a moment (3)"
PERFORMER "Брати Блюзу"
INDEX 01 00:00:00
FILE "04 - just a moment (2).flac" WAVE
TRACK 04 AUDIO
TITLE "just a moment (2)"
PERFORMER "Брати Блюзу"
INDEX 01 00:00:00
FILE "05 - flight Vienna-Paris.flac" WAVE
TRACK 05 AUDIO
TITLE "flight: Vienna-Paris"
PERFORMER "Брати Блюзу"
INDEX 01 00:00:00
FILE "06 - Rain (beginning).flac" WAVE
TRACK 06 AUDIO
TITLE "Rain? (beginning)"
PERFORMER "Брати Блюзу"
INDEX 01 00:00:00
FILE "07 - Vienna Woods.flac" WAVE
TRACK 07 AUDIO
TITLE "Vienna Woods"
PERFORMER "Брати Блюзу"
INDEX 01 00:00:00
FILE "08 - Rain (continuation).flac" WAVE
TRACK 08 AUDIO
TITLE "Rain? (continuation)"
PERFORMER "Брати Блюзу"
INDEX 01 00:00:00
FILE "09 - piano (2).flac" WAVE
TRACK 09 AUDIO
TITLE "piano (2)"
PERFORMER "Брати Блюзу"
INDEX 01 00:00:00
FILE "10 - Rain (end).flac" WAVE
TRACK 10 AUDIO
TITLE "Rain? (end)"
PERFORMER "Брати Блюзу"
INDEX 01 00:00:00
FILE "11 - Oj-ja or soundtrack.flac" WAVE
TRACK 11 AUDIO
TITLE "Oj-ja or soundtrack"
PERFORMER "Брати Блюзу"
INDEX 01 00:00:00
FILE "12 - Authentic life (part 1).flac" WAVE
TRACK 12 AUDIO
TITLE "Authentic life (part 1)"
PERFORMER "Брати Блюзу"
INDEX 01 00:00:00
FILE "13 - piano (3).flac" WAVE
TRACK 13 AUDIO
TITLE "piano (3)"
PERFORMER "Брати Блюзу"
INDEX 01 00:00:00
Тривалість: 00:43:32
Мова: instrumental
Аудіо-кодек: FLAC
Бітрейт: 575 кбіт/с
Джерело: Оригінальний диск
Додаткова інформація:
На сьогоднішній день це останній альбом гурту "Брати Блюзу", і донедавна його можна було придбати виключно на концертах. А як гурт концертує в Україні не надто часто – то ми раді, що відтепер цей диск можна побачити і на нашій вітрині. Бо, по-перше, "Брати Блюзу" вже давно – і цілком заслужено – стали живою легендою українського джаз-року. А по-друге – і це, мабуть, ще більш важливо – альбом дійсно гарний і цікавий. Цікавий, перш за все, своєю неоднозначністю. Звичайно, тут є рок-пружина – хоч і не така явна, як на ювілейному альбомі. Але в основі все ж лежить джазова естетика європейського, скажімо так, зразку – основна заслуга в цьому плані, гадаємо, належить Мирославу Левицькому, піаністу і, власне, композитору. Плюс – яскраві барви виникають завдяки посиланням на український фольклор. І головну роль в даному випадку відіграє скрипка – але Кирило Стеценко привносить своєю грою заразом і більш вільні, повітряні настрої. Плюс – у концерті брав участь австрійський гітарист Rens Newland (а на двох п’єсах він заграв ще і на перкусії), і це також додало свіжості загальному звучанню проекту. В результаті "One Autumn Concert" вийшов дуже атмосферним і, водночас, насиченим. Та Ви й самі це почуєте...


Якщо Ви справді бажаєте підтримати українське - після прослуховування, якщо музика вам сподобалась, придбайте ліцензійний диск. Підтримаймо вітчизняних виконавців!


Срібний реліз (на рейтинг впливає 50% завантаженого)
 Трекер:    Зареєстрований   

Завантажити / скачати українську музику



відео для новачків



 Зареєстрований:   2011-01-04 21:15
 Розмір:   230 MB 
 Оцінка музики:   9.8/10 (Голосів: 5)
   
ssTAss 
Модератор музики


З нами з: 05.07.08
Востаннє: 08.12.16
Повідомлень: 10948

2011-01-05 01:04  
оуу, дякую за чудовий реліз (музику)
вже тягну
декілька поправок
romkop написано:
Країна, місто: Україна

Україна, Івано-Франківськ
romkop написано:
Сайти:

Офіційний сайт
ось код
Код:
[url=http://www.mlevytsky.com][b]Офіційний сайт[/b][/url]

romkop написано:
Бітрейт: lossless

треба вказати числове значення
romkop написано:
Джерело: Оригінальний диск

правильно зрозумів, це Ваш власний ріп?
додайте (після переліку пісень) під спойлером вміст лог-файлу, будь-ласка

Додано через 16 хвилин 36 секунд:

обкладинка кращої якості

romkop 
Новенький


З нами з: 26.05.09
Востаннє: 08.12.16
Повідомлень: 9

2011-01-05 02:26  
Тепер все правильно?

П.С. дякую за обкладинку!

ssTAss 
Модератор музики


З нами з: 05.07.08
Востаннє: 08.12.16
Повідомлень: 10948

2011-01-05 02:34  
romkop написано:
Тепер все правильно?

так, дякую

Ваш часовий пояс: GMT + 2 Години

Нова тема   Відповісти