Завантажити та скачати торренти українською


Квартет Явір - Яворові дзвони. 30 років (2009) [FLAC] | A capella / Folk

Нові коментарі

Нова тема   Відповісти
Автор Повідомлення
romkop 
Новенький


З нами з: 26.05.09
Востаннє: 04.12.16
Повідомлень: 9

2011-01-04 16:45  
Квартет Явір - Яворові дзвони. 30 років (2009) [FLAC] | A capella / Folk



Стиль: A capella, Folk, Ethno
Країна, місто: Україна, Київ
Видавець: UKRmusic
Виконавці:
Володимир Дідух (баритон)
Валентин Реус (бас)
Ігор Борткo (тенор 1)
Євген Пруткін (тенор 2)
Пісні:
  • 1. Осіннє золото
  • 2. Пісня з далекого краю
  • 3. Мелодія
  • 4. Думи мої, думи мої
  • 5. А вже літ двісті козак в неволі
  • 6. Ой Морозе, Морозенку
  • 7. Їхав козак на війноньку
  • 8. Виростеш ти, сину
  • 9. По садочку ходжу
  • 10. Ой наступила та чорна хмара
  • 11. Циганочка
  • 12. Весільна
  • 13. Сусідка
  • 14. Гречаники
Вміст лог-файлу

This log is created by Rubyripper, version 0.6.0
Website: http://code.google.com/p/rubyripper

Cdrom player used to rip:
Optiarc DVD RW AD-7560A DX06
Cdrom offset used: 6

Ripper used: cdparanoia
Matches required for all chunks: 2
Matches required for erroneous chunks: 2

Codec(s) used:
-flac -> --best -V (flac 1.2.1)

CDDB INFO

Artist = Квартет \"Явір\"
Album = Яворові дзвони. 30 років
Year = 2009
Genre = Folk
Tracks = 14 (14 selected)

01 - Осіннє золото
02 - Пісня з далекого краю
03 - Пісня з далекого краю
04 - Мелодія
05 - А вже літ двісті козак в неволі
06 - Ой Морозе, Морозенку
07 - Їхав козак на війноньку
08 - Виростеш ти, сину
09 - По садочку ходжу
10 - Ой наступила та чорна хмара
11 - Циганочка
12 - Весільна
13 - Сусідка
14 - Гречаники

ADVANCED TOC ANALYSIS (with cdrdao)
...please be patient, this may take a while

No pregaps, silences or pre-emphasis detected

STATUS

Starting to rip track 1, trial #1 (51 seconds)
Starting to rip track 1, trial #2 (48 seconds)
Analyzing files for mismatching chunks
Every chunk matched 2 times Happy
MD5 sum: 0a6fb3525860bf081f588017d6203a13

Starting to rip track 2, trial #1 (57 seconds)
Starting to rip track 2, trial #2 (52 seconds)
Analyzing files for mismatching chunks
Every chunk matched 2 times Happy
MD5 sum: aff7458620bc33224b7a077640a7e002

Starting to rip track 3, trial #1 (49 seconds)
Starting to rip track 3, trial #2 (45 seconds)
Analyzing files for mismatching chunks
Every chunk matched 2 times Happy
MD5 sum: 7855de1a8e1887b5141801382bcc05ae

Starting to rip track 4, trial #1 (46 seconds)
Starting to rip track 4, trial #2 (41 seconds)
Analyzing files for mismatching chunks
Every chunk matched 2 times Happy
MD5 sum: 99cfb661157bcd8bc2e4ac3372caa286

Starting to rip track 5, trial #1 (39 seconds)
Starting to rip track 5, trial #2 (34 seconds)
Analyzing files for mismatching chunks
Every chunk matched 2 times Happy
MD5 sum: 58e414dfcc3bd13d32bdd28cbd79a11b

The drive is spinning for more than 30 minutes.
Taking a timeout of 2 minutes to protect the hardware.
Starting to rip track 6, trial #1 (46 seconds)
Starting to rip track 6, trial #2 (41 seconds)
Analyzing files for mismatching chunks
Every chunk matched 2 times Happy
MD5 sum: 5bfc2e9cd1a93c0b61705bb34f2492cf

Starting to rip track 7, trial #1 (27 seconds)
Starting to rip track 7, trial #2 (22 seconds)
Analyzing files for mismatching chunks
Every chunk matched 2 times Happy
MD5 sum: 790300d2c8b479fd7007610a7fd8cfd5

Starting to rip track 8, trial #1 (32 seconds)
Starting to rip track 8, trial #2 (28 seconds)
Analyzing files for mismatching chunks
Every chunk matched 2 times Happy
MD5 sum: ec26dc62147e78818fbe76378b51f78a

Starting to rip track 9, trial #1 (29 seconds)
Starting to rip track 9, trial #2 (24 seconds)
Analyzing files for mismatching chunks
Every chunk matched 2 times Happy
MD5 sum: 855777b4c933b6be019e813466abf2e5

Starting to rip track 10, trial #1 (29 seconds)
Starting to rip track 10, trial #2 (24 seconds)
Analyzing files for mismatching chunks
Every chunk matched 2 times Happy
MD5 sum: 25fa21f624e3936fade7902ce78bc3c9

Starting to rip track 11, trial #1 (24 seconds)
Starting to rip track 11, trial #2 (19 seconds)
Analyzing files for mismatching chunks
Every chunk matched 2 times Happy
MD5 sum: 9b02d3d352057e9e4f0b93701ecf3bc1

The drive is spinning for more than 30 minutes.
Taking a timeout of 2 minutes to protect the hardware.
Starting to rip track 12, trial #1 (26 seconds)
Starting to rip track 12, trial #2 (22 seconds)
Analyzing files for mismatching chunks
Every chunk matched 2 times Happy
MD5 sum: eeb967635b4b2f2fffe9de0693f43e81

Starting to rip track 13, trial #1 (23 seconds)
Starting to rip track 13, trial #2 (18 seconds)
Analyzing files for mismatching chunks
Every chunk matched 2 times Happy
MD5 sum: 49cfe21dabfda947fa17c4e38d54cdf7

Starting to rip track 14, trial #1 (33 seconds)
Starting to rip track 14, trial #2 (28 seconds)
Analyzing files for mismatching chunks
Every chunk matched 2 times Happy
MD5 sum: 9657d34452d223866bebdaeea9c26028

RIPPING SUMMARY

All chunks were tried to match at least 2 times.
None of the tracks gave any problems
.CUE-файл

REM GENRE Folk
REM DATE 2009
REM COMMENT "Rubyripper 0.6.0"
REM DISCID b50b530e
REM FREEDB_QUERY "b50b530e 14 150 16582 36022 54938 73777 89775 110661 122177 136847 150437 163627 174891 187989 199408 2901"
PERFORMER "Квартет \"Явір\""
TITLE "Яворові дзвони. 30 років"
FILE "01 - Осіннє золото.flac" WAVE
TRACK 01 AUDIO
TITLE "Осіннє золото"
PERFORMER "Квартет \"Явір\""
INDEX 01 00:00:00
FILE "02 - Пісня з далекого краю.flac" WAVE
TRACK 02 AUDIO
TITLE "Пісня з далекого краю"
PERFORMER "Квартет \"Явір\""
INDEX 01 00:00:00
FILE "03 - Пісня з далекого краю.flac" WAVE
TRACK 03 AUDIO
TITLE "Пісня з далекого краю"
PERFORMER "Квартет \"Явір\""
INDEX 01 00:00:00
FILE "04 - Мелодія.flac" WAVE
TRACK 04 AUDIO
TITLE "Мелодія"
PERFORMER "Квартет \"Явір\""
INDEX 01 00:00:00
FILE "05 - А вже літ двісті козак в неволі.flac" WAVE
TRACK 05 AUDIO
TITLE "А вже літ двісті козак в неволі"
PERFORMER "Квартет \"Явір\""
INDEX 01 00:00:00
FILE "06 - Ой Морозе, Морозенку.flac" WAVE
TRACK 06 AUDIO
TITLE "Ой Морозе, Морозенку"
PERFORMER "Квартет \"Явір\""
INDEX 01 00:00:00
FILE "07 - Їхав козак на війноньку.flac" WAVE
TRACK 07 AUDIO
TITLE "Їхав козак на війноньку"
PERFORMER "Квартет \"Явір\""
INDEX 01 00:00:00
FILE "08 - Виростеш ти, сину.flac" WAVE
TRACK 08 AUDIO
TITLE "Виростеш ти, сину"
PERFORMER "Квартет \"Явір\""
INDEX 01 00:00:00
FILE "09 - По садочку ходжу.flac" WAVE
TRACK 09 AUDIO
TITLE "По садочку ходжу"
PERFORMER "Квартет \"Явір\""
INDEX 01 00:00:00
FILE "10 - Ой наступила та чорна хмара.flac" WAVE
TRACK 10 AUDIO
TITLE "Ой наступила та чорна хмара"
PERFORMER "Квартет \"Явір\""
INDEX 01 00:00:00
FILE "11 - Циганочка.flac" WAVE
TRACK 11 AUDIO
TITLE "Циганочка"
PERFORMER "Квартет \"Явір\""
INDEX 01 00:00:00
FILE "12 - Весільна.flac" WAVE
TRACK 12 AUDIO
TITLE "Весільна"
PERFORMER "Квартет \"Явір\""
INDEX 01 00:00:00
FILE "13 - Сусідка.flac" WAVE
TRACK 13 AUDIO
TITLE "Сусідка"
PERFORMER "Квартет \"Явір\""
INDEX 01 00:00:00
FILE "14 - Гречаники.flac" WAVE
TRACK 14 AUDIO
TITLE "Гречаники"
PERFORMER "Квартет \"Явір\""
INDEX 01 00:00:00
Тривалість: 00:48:19
Мова: українська
Аудіо-кодек: FLAC
Бітрейт: 535 кбіт/с
Джерело: Оригінaльний диск

Якщо Ви справді бажаєте підтримати українське - після прослуховування, якщо музика вам сподобалась, придбайте ліцензійний диск.
Підтримаймо вітчизняних виконавців!


Срібний реліз (на рейтинг впливає 50% завантаженого)
 Трекер:    Зареєстрований   

Завантажити / скачати українську музику



відео для новачків



 Зареєстрований:   2011-01-04 16:45
 Розмір:   201 MB 
 Оцінка музики:   10/10 (Голосів: 7)
   
ssTAss 
Модератор музики


З нами з: 05.07.08
Востаннє: 05.12.16
Повідомлень: 10941

2011-01-05 02:42  
трошки підправив оформлення
romkop написано:
Бітрейт: lossless

вкажіть числове значення
наприклад 980 кбіт/с
romkop написано:
Джерело:

заповнити

Додано через 38 секунд:

ну і вміст лог-файлу додайте під спойлер

romkop 
Новенький


З нами з: 26.05.09
Востаннє: 04.12.16
Повідомлень: 9

2011-01-05 13:20  
ssTAss
Все зробив.

Ваш часовий пояс: GMT + 2 Години

Нова тема   Відповісти