Завантажити та скачати торренти українською


Symfomania - Aria (2010) [FLAC] | Symphonic Rock

Нові коментарі

Нова тема   Відповісти
Останній раз роздавалося Seriy100293 (2016-11-30)
Автор Повідомлення
ssTAss 
Модератор музики


З нами з: 05.07.08
Востаннє: 10.12.16
Повідомлень: 10950

2011-01-02 16:09  
Symfomania - Aria (2010) [FLAC] | Symphonic Rock



Стиль: Symphonic Rock
Країна, місто: Україна, Київ
Сайти: Офіційний сайт
Видавець: Symfomania
Виконавці:
Марія Бродова – скрипка
Вероніка Черняк – скрипка
Валентина Буграк – альт
Дарина Сєдова – віолончель
Ольга Айдінова – клавішні
Вікторія Мілевська – барабани
Пісні:
    01. Улица Роз
    02. Колизей
    03. Штиль
    04. Герой Асфальта
    05. Баллада о Древнерусском Воине
    06. Последний Закат
    07. Осколок Льда
    08. Небо Тебя Найдет
    09. Ангельская Пыль
    10. Возьми Мое Сердце
    11. Раскачаем Этот Мир
    бонус-відео:
    Улица роз (live)

    Тривалість: 00:04:30
    Якість:
    кодек: MPEG Video (Version 2)
    розмір кадру: 720x576
    бітрейт: 3 769 Kbps

    Аудіо:
    мова: без слів
    кодек: MPEG Audio (Version 1)
    бітрейт: 384 Kbps (48000Hz stereo)
    Скріншоти:
log
Exact Audio Copy V0.99 prebeta 5 from 4. May 2009

EAC extraction logfile from 29. December 2010, 23:24

Symfomania / Aria

Used drive : HL-DT-STDVDRAM GSA-T20N Adapter: 2 ID: 0

Read mode : Secure
Utilize accurate stream : Yes
Defeat audio cache : Yes
Make use of C2 pointers : No

Read offset correction : 667
Overread into Lead-In and Lead-Out : No
Fill up missing offset samples with silence : Yes
Delete leading and trailing silent blocks : No
Null samples used in CRC calculations : No
Used interface : Native Win32 interface for Win NT & 2000
Gap handling : Appended to previous track

Used output format : User Defined Encoder
Selected bitrate : 128 kBit/s
Quality : High
Add ID3 tag : No
Command line compressor : C:\Program Files\Exact Audio Copy\Flac\flac.exe
Additional command line options : -8 -V -T "ARTIST=%a" -T "TITLE=%t" -T "ALBUM=%g" -T "DATE=%y" -T "TRACKNUMBER=%n" -T "GENRE=%m" -T "COMMENT=EAC FLAC -8" %s

TOC of the extracted CD

Track | Start | Length | Start sector | End sector
---------------------------------------------------------
1 | 0:00.00 | 4:40.44 | 0 | 21043
2 | 4:40.44 | 6:33.51 | 21044 | 50569
3 | 11:14.20 | 5:37.07 | 50570 | 75851
4 | 16:51.27 | 4:26.61 | 75852 | 95862
5 | 21:18.13 | 5:35.09 | 95863 | 120996
6 | 26:53.22 | 5:04.05 | 120997 | 143801
7 | 31:57.27 | 5:23.49 | 143802 | 168075
8 | 37:21.01 | 5:15.60 | 168076 | 191760
9 | 42:36.61 | 6:02.65 | 191761 | 218975
10 | 48:39.51 | 4:12.45 | 218976 | 237920
11 | 52:52.21 | 5:56.66 | 237921 | 264686
12 | 61:21.12 | 16:24.71 | 276087 | 349957

Track 1

Filename C:\Music flac\Symfomania\01. Symfomania – Улица Роз.wav

Pre-gap length 0:00:02.00

Peak level 96.6 %
Track quality 99.9 %
Test CRC 7ACF6886
Copy CRC 7ACF6886
Copy OK

Track 2

Filename C:\Music flac\Symfomania\02. Symfomania – Колизей.wav

Pre-gap length 0:00:02.00

Peak level 96.6 %
Track quality 100.0 %
Test CRC 7CB16A6D
Copy CRC 7CB16A6D
Copy OK

Track 3

Filename C:\Music flac\Symfomania\03. Symfomania – Штиль.wav

Pre-gap length 0:00:02.00

Peak level 96.6 %
Track quality 100.0 %
Test CRC 6755CBE9
Copy CRC 6755CBE9
Copy OK

Track 4

Filename C:\Music flac\Symfomania\04. Symfomania – Герой Асфальта.wav

Pre-gap length 0:00:02.00

Peak level 96.6 %
Track quality 100.0 %
Test CRC 89C023F8
Copy CRC 89C023F8
Copy OK

Track 5

Filename C:\Music flac\Symfomania\05. Symfomania – Баллада о Древнерусском Воине.wav

Pre-gap length 0:00:02.00

Peak level 96.6 %
Track quality 100.0 %
Test CRC EE5D0F40
Copy CRC EE5D0F40
Copy OK

Track 6

Filename C:\Music flac\Symfomania\06. Symfomania – Последний Закат.wav

Pre-gap length 0:00:02.00

Peak level 96.6 %
Track quality 100.0 %
Test CRC 468D3EF0
Copy CRC 468D3EF0
Copy OK

Track 7

Filename C:\Music flac\Symfomania\07. Symfomania – Осколок Льда.wav

Pre-gap length 0:00:02.00

Peak level 96.6 %
Track quality 100.0 %
Test CRC C34430A0
Copy CRC C34430A0
Copy OK

Track 8

Filename C:\Music flac\Symfomania\08. Symfomania – Небо Тебя Найдет.wav

Pre-gap length 0:00:02.00

Peak level 96.6 %
Track quality 99.9 %
Test CRC E4B63BB6
Copy CRC E4B63BB6
Copy OK

Track 9

Filename C:\Music flac\Symfomania\09. Symfomania – Ангельская Пыль.wav

Pre-gap length 0:00:02.00

Peak level 96.6 %
Track quality 100.0 %
Test CRC 730ED34F
Copy CRC 730ED34F
Copy OK

Track 10

Filename C:\Music flac\Symfomania\10. Symfomania – Возьми Мое Сердце.wav

Pre-gap length 0:00:02.00

Peak level 96.6 %
Track quality 100.0 %
Test CRC 605C8C78
Copy CRC 605C8C78
Copy OK

Track 11

Filename C:\Music flac\Symfomania\11. Symfomania – Раскачаем Этот Мир.wav

Pre-gap length 0:00:02.00

Peak level 97.8 %
Track quality 100.0 %
Test CRC B394421C
Copy CRC B394421C
Copy OK

No errors occurred

End of status report
Тривалість: 00:58:49
Мова: instrumental (без слів)
Аудіо-кодек: FLAC
Бітрейт: 826-1056 кб/с
Джерело: ріп з диску Павла Шумського
Додаткова інформація:
Натиснути:
Композитори: 1, 3, 7 – В.Дубінін; 2, 6, 8 – В.Холстінін; 4 – С.Маврін, В. Холстінін*; 5 – В.Холстінін, В.Дубінін; 9, 11 – В.Дубінін, В.Холстінін; 10 – В.Кіпєлов.
Аранжування: струнний квартет – М. Бродова, клавішні – О. Айдінова.
Запис:
Струнні і ударні – “Britrecords”
Клавішні – “Top Sound Records”
«Улица роз» записана на студії “Top Sound Records”
Запис гітар і бас-гітар – Андрій Томашенко
Продюсер – Олександр Мілевський
Дизайн обкладинки – Юрій Лабунець, «Такі справи»



Якщо Ви справді бажаєте підтримати українське - після прослуховування, якщо музика вам сподобалась,
придбайте ліцензійний диск.
Підтримаймо вітчизняних виконавців!


Срібний реліз (на рейтинг впливає 50% завантаженого)
 Трекер:    Зареєстрований   

Завантажити / скачати українську музику



відео для новачків



 Зареєстрований:   2011-01-05 01:36
 Розмір:   553 MB 
 Оцінка музики:   7.7/10 (Голосів: 15)
   
ssTAss 
Модератор музики


З нами з: 05.07.08
Востаннє: 10.12.16
Повідомлень: 10950

2011-01-02 16:59  
фото обкладинки (Павло Шумський)




Lev 
VIP


З нами з: 14.10.09
Востаннє: 09.12.16
Повідомлень: 1819

2011-01-02 22:46  
Москалі мають їм виставитись Happy
Ferrum-Troll 
Новенький


З нами з: 11.03.10
Востаннє: 08.12.16
Повідомлень: 21

2011-01-04 18:43  
Lev
як на мене, то є за що "виставитись"
мені дуже сподобалось

ssTAss 
Модератор музики


З нами з: 05.07.08
Востаннє: 10.12.16
Повідомлень: 10950

2011-01-05 01:39  
вже є кліп з диску
зараз додам в реліз
прохання перевантажити торрент-файл

Додано через 6 хвилин 10 секунд:

УВАГА!
Торрент-файл змінено (додано кліп і фото обкладинок)
Прохання перезавантажити

ssTAss 
Модератор музики


З нами з: 05.07.08
Востаннє: 10.12.16
Повідомлень: 10950

2011-01-09 00:00  

[email protected]@R 
Новенький


З нами з: 26.02.14
Востаннє: 04.02.15
Повідомлень: 1

2015-02-03 23:15  
Де ж роздача?
Evgenyus 
Новенький


З нами з: 10.06.11
Востаннє: 08.08.16
Повідомлень: 1

2015-02-13 12:29  
Технічні питання: видаліть з роздачі файл Ariaflac.cue який дублює існуючий файл Aria.cue , що призводить до неправильного відтворення у фубарі. Про музику: аранжування, виконання: на відмінно. Зведення саунду просто.... "БЕЗ СЛІВ" Це-ж треба таким тупим мастерингом все дівчатам перепаскудити....!!!!!! Шкода, прослуховування втомлює....
Ваш часовий пояс: GMT + 2 Години

Нова тема   Відповісти