Завантажити та скачати торренти українською


Ольга Богомолець, І. Жук - Нас двоє (2006) [FLAC] | Acoustic / Bard

Нові коментарі

Нова тема   Відповісти
Автор Повідомлення
gattozebratto 
Новенький


З нами з: 02.01.10
Востаннє: 02.11.16
Повідомлень: 19

2011-01-02 10:51  
Ольга Богомолець, Ігор Жук - Нас двоє (2006) [FLAC] | Acoustic / Bard



Стиль: Neoclassic Acoustic
Країна, місто: Україна, Київ
Сайти: Офіційний сайт
Видавець: САМЕ ТАК!
Виконавці:
Ольга Богомолець, Ігор Жук.

Пісні:
    01. Осінній день (Л.Костенко, муз. О.Богомолець)
    02. Портрет (І.Жук)
    03. В пустелі... (Л.Костенко, муз. О.Богомолець)
    04. Слова (І.Жук)
    05. Amore, amo (Л.Костенко, муз. О.Богомолець)
    06. Що в нас було... (Л.Костенко, муз. О.Богомолець)
    07. Ті журавлі... (Л.Костенко, муз. О.Богомолець)
    08. Закований лицар (І.Жук)
    09. Освідчення (І.Жук)
    10. Мавка (О.Богомолець)
    11. Зоряний ноктюрн №2 (І.Жук)
    12. Ялинка (Л.Костенко, муз. О.Богомолець)
    13. Зоряний ноктюрн №3 (І.Жук)
    14. Місячна соната (Л.Костенко, муз. О.Богомолець)
    15. Гайдн. Прощальна симфонія (І.Жиленко, муз. І. Жука)
    16. Адам і Єва (І.Жук)
    17. Колискова (М.Вінграновський, муз. О.Богомолець)
    18. Лист з неоліту (І.Жук)
    19. Руан (Л.Костенко, муз. О.Богомолець)
    20. Любов Нансена (Л.Костенко, муз. О.Богомолець, І. Жука)
    21. Розпусна вдовиця (фрагмент із поеми Л.Костенко "Мандрівки серця", муз. О.Богомолець, І. Жука)
    22. Нас мало (І.Жук)

Тривалість: 01:08:14
Мова: українська
Аудіо-кодек: FLAC
Бітрейт: 756.7 kbit
Джерело: Власний оригинальний диск
Log-файл

Exact Audio Copy V1.0 beta 1 from 15. November 2010

EAC extraction logfile from 1. January 2011, 18:35

Unknown Artist / Unknown Title

Used drive : _NEC DVD_RW ND-4550A Adapter: 1 ID: 0

Read mode : Secure
Utilize accurate stream : Yes
Defeat audio cache : No
Make use of C2 pointers : Yes

Combined read/write offset correction : 0
Overread into Lead-In and Lead-Out : No
Fill up missing offset samples with silence : Yes
Delete leading and trailing silent blocks : No
Null samples used in CRC calculations : No
Used interface : Installed external ASPI interface
Used output format : User Defined Encoder
Selected bitrate : 768 kBit/s
Quality : High
Add ID3 tag : No
Command line compressor : C:\Program Files\Exact Audio Copy\FLAC\FLAC.EXE
Additional command line options : -6 -V -T "ARTIST=%a" -T "TITLE=%t" -T "ALBUM=%g" -T "DATE=%y" -T "TRACKNUMBER=%n" -T "GENRE=%m" -T "COMMENT=%e" %j--picture="%i"%j %s -o %d
TOC of the extracted CD

Track | Start | Length | Start sector | End sector
---------------------------------------------------------
1 | 0:00.00 | 3:58.37 | 0 | 17886
2 | 3:58.37 | 2:54.66 | 17887 | 31002
3 | 6:53.28 | 4:23.00 | 31003 | 50727
4 | 11:16.28 | 2:11.31 | 50728 | 60583
5 | 13:27.59 | 3:12.37 | 60584 | 75020
6 | 16:40.21 | 2:41.25 | 75021 | 87120
7 | 19:21.46 | 2:41.34 | 87121 | 99229
8 | 22:03.05 | 2:11.04 | 99230 | 109058
9 | 24:14.09 | 2:46.59 | 109059 | 121567
10 | 27:00.68 | 3:24.55 | 121568 | 136922
11 | 30:25.48 | 1:54.60 | 136923 | 145532
12 | 32:20.33 | 3:15.25 | 145533 | 160182
13 | 35:35.58 | 3:28.41 | 160183 | 175823
14 | 39:04.24 | 4:05.00 | 175824 | 194198
15 | 43:09.24 | 3:26.61 | 194199 | 209709
16 | 46:36.10 | 2:34.67 | 209710 | 221326
17 | 49:11.02 | 3:57.16 | 221327 | 239117
18 | 53:08.18 | 1:53.41 | 239118 | 247633
19 | 55:01.59 | 2:46.64 | 247634 | 260147
20 | 57:48.48 | 3:35.63 | 260148 | 276335
21 | 61:24.36 | 5:50.07 | 276336 | 302592
22 | 67:14.43 | 1:22.56 | 302593 | 308798
Range status and errors

Selected range

Filename Z:\VMWARE_CHANGE\WAV\Bogomoletc_Zhuk.wav

Peak level 98.0 %
Extraction speed 0.3 X
Range quality 100.0 %
Copy CRC D1224D15
Copy OK

No errors occurred

End of status report
Додаткова інформація:
Унікальне сполучення відомих бардів та виконавців.
Один з небагатьох дисків, на яких також є високоякісний запис І. Жука.
Думаю, що через особисті обставини, це перший та останній їх спільний диск, хоч дуже хочу, щоб я помилився.


Також до уваги:
Ольга Богомолець - Осінній день (2001) [FLAC]
Ольга Богомолець - Осінній день (2001) [MP3]
Ольга Богомолець - kairos (2006) [FLAC]


Якщо Ви справді бажаєте підтримати українське - після прослуховування, якщо музика вам сподобалась, придбайте ліцензійний диск. Підтримаймо вітчизняних виконавців!
Якщо не ми, то ХТО?


Срібний реліз (на рейтинг впливає 50% завантаженого)
 Трекер:    Зареєстрований   

Завантажити / скачати українську музику



відео для новачків



 Зареєстрований:   2011-01-02 10:51
 Розмір:   374 MB 
 Оцінка музики:   10/10 (Голосів: 9)
   
Tarasyk 
Відео Гуртом - фільмокрай
Відео Гуртом - фільмокрай


З нами з: 26.08.09
Востаннє: 28.11.16
Повідомлень: 5972

2011-01-02 11:40  
gattozebratto написано:
Bogomoletc,Zhuck - Nas Dvoe

Прохання написати не транслітом, а нормально - українською Wink (1) .
gattozebratto написано:
Тривалість: гг:хх:сс

Вказати.

А також прохання під спойлером навести вміст лог-файлу.

gattozebratto 
Новенький


З нами з: 02.01.10
Востаннє: 02.11.16
Повідомлень: 19

2011-01-02 12:23  
Tarasyk
Цитата:
Прохання написати не транслітом, а нормально - українською


Тоді виправте зразок - там транслітерацією, або додайте пояснення, де та що писати.
Тривалість пропустив, перепрошую.

Будьмо!

Tarasyk 
Відео Гуртом - фільмокрай
Відео Гуртом - фільмокрай


З нами з: 26.08.09
Востаннє: 28.11.16
Повідомлень: 5972

2011-01-02 12:45  
gattozebratto написано:
Ольга Богомолець, Ігор Жук - Нас двоє (2006)[FLAC] | Acoustic / Bard

gattozebratto, то я мав на увазі назву теми - тепер вже все нормально Wink (1) .

Дякую за виправлення.

Додано через 5 хвилин 29 секунд:

Трішки підправив оформлення, сподіваюся Ви не проти Wink (2)

gattozebratto 
Новенький


З нами з: 02.01.10
Востаннє: 02.11.16
Повідомлень: 19

2011-01-02 12:49  
Авжеж, не проти. Я саме так і хотів, просто потім забув додати посилання...
Hentaihunter 
VIP


З нами з: 16.08.08
Востаннє: 06.12.16
Повідомлень: 2153

2011-06-18 17:33  
Маю альбом Ігоря Жука "Лист". Кому треба, пишіть, викладу.
Ваш часовий пояс: GMT + 2 Години

Нова тема   Відповісти