Завантажити та скачати торренти українською


Міцний горішок 4.0 / Live Free Or Die Hard 4.0 (2007) DVD5 2xRus/Ukr | sub Ukr/Rus/Kz

Нові коментарі

Нова тема   Відповісти
Останній раз роздавалося kubis (2016-11-29)
Автор Повідомлення
carrera_zola 
Поважний учасник


З нами з: 31.10.10
Востаннє: 31.05.15
Повідомлень: 160

2010-12-29 00:57  
Міцний горішок 4.0 / Live Free Or Die Hard 4.0 (2007) DVD5 2xRus/Ukr | sub Ukr/Rus/Kz





Жанр: Бойовик, Трилер
Країна: США



Режисер: Лен Вайзмен
Актори: Брюс Вілліс, Тімоті Оліфант, Меггі Кю, Джастін Лонг

Сюжет:
Цього разу Джон МакКлейн рятуватиме Штати від групи інтернет-терористів, що збираються буквально "вимкнути" Сполучені Штати Америки. А, враховуючи, що Джон - людина старої формації, то в процесі боротьби з сучасними технологіями йому, окрім старої доброю "Беретти", знадобиться молодий, недисциплінований, але дуже талановитий помічник.


Тривалість: 02:03:24
Якість: DVD5
Відео:
кодек: MPEG-2 DVD
розмір кадру: 720 х 576
бітрейт: 4990 кб/с

Аудіо # 1:
мова: російська
переклад: професійний дубльований
кодек: 5.1
бітрейт:384 кб/с

Аудіо # 2:
мова: російська
переклад: професійний дубльований
кодек: 5.1
бітрейт:755 кб/с

Аудіо # 3:
мова: українська
переклад: професійний дубльований
кодек: 5.1
бітрейт:384 кб/с

Переклад і озвучення виконано:


Субтитри #1:
мова: російська
тип: пререндерні

Субтитри #2:
мова: українська
тип: пререндерні

Субтитри #3:
мова: казахська
тип: пререндерні
Скріншоти
Меню

Кадри з фільму














Media Info Audio



Джерело: Власний DVD диск Wink (2)
Особиста оцінка: 12 - рекомендую скачати кожному


 Трекер:    Зареєстрований   

Завантажити / скачати фільм українською



відео для новачків



 Зареєстрований:   2010-12-29 15:54
 Розмір:   4.37 GB 
 Оцінка фільму:   7.8/10 (Голосів: 21)
   
Hentaihunter 
VIP


З нами з: 16.08.08
Востаннє: 08.12.16
Повідомлень: 2154

2010-12-29 16:23  
Дизайнер скромно промовчав, що це перетиснутий DVD9. Замість того, щоб видалити російські доріжки і не погіршувати якість відео для досягнення об'єму DVD5 було зроблена дурість з перетисканням. Я не кажу вже про помилку у визначенні бітрейту (на скріншоті 755, записано 384), а також те, що бітрейт відео DVD з усіма доріжками не може перевищувати 9800 кб/с (25,000 - це кількість кадрів за секунду для PAL), і що не існує казахстанської мови. Краще вантажте оригінальний DVD9 і переробляйте його самостійно, а це - у смітник.
P.S. Модератору варто повторно ознайомитися з техданими DVD: http://uk.wikipedia.org/wiki/DVD .

urij546724 
Відео Гуртом - фільмокрай
Відео Гуртом - фільмокрай


З нами з: 16.03.10
Востаннє: 08.12.16
Повідомлень: 5222

2010-12-29 17:33  
carrera_zola, перевір бітрейт. Щось дійсно не на те спочатку звертав увагу.
Hentaihunter написано:
казахстанської мови

А яка ж тоді?
Hentaihunter написано:
http://uk.wikipedia.org/wiki/DVD .

Дякую!

carrera_zola 
Поважний учасник


З нами з: 31.10.10
Востаннє: 31.05.15
Повідомлень: 160

2010-12-29 18:03  
В меню диску пише якась ""казакша""
Цитата:
перевір бітрейт. Щось дійсно не на те спочатку звертав увагу.

Я замість бітрейту відео написав частоту відео ""Насправді бітрейт 9800 кб/с ""

Hentaihunter 
VIP


З нами з: 16.08.08
Востаннє: 08.12.16
Повідомлень: 2154

2010-12-29 18:33  
urij546724 написано:
А яка ж тоді?

Завжди була казахська: http://uk.wikipedia.org/wiki/азахська_мова

urij546724 
Відео Гуртом - фільмокрай
Відео Гуртом - фільмокрай


З нами з: 16.03.10
Востаннє: 08.12.16
Повідомлень: 5222

2010-12-29 18:45  
Hentaihunter написано:
Зажди була казахська: http://uk.wikipedia.org/wiki/азахська_мова

Ну що ж сказати. Усе непомітиш.

weber 
Почесний гуртомівець


З нами з: 03.08.08
Востаннє: 07.12.16
Повідомлень: 7003

2010-12-30 17:20  
Та то номінальний бітрейт, вкажіть реальний, там точно ніяких 9800 немає і близько.
Пререндерні саби формату не мають.

carrera_zola 
Поважний учасник


З нами з: 31.10.10
Востаннє: 31.05.15
Повідомлень: 160

2011-01-02 16:43  
Повна інформація про фільм
Общее
Полное имя : D:\Live Free Or Die Hard 4.0 (2007) DVD5 [Hurtom]\die-hard-4.jpg
Формат : JPEG
Размер файла : 332 Кбайт

Изображения
Формат : JPEG
Ширина : 680 пикс.
Высота : 921 пикс.
Подвыборка цветности : 4:4:4
Битовая глубина : 8 бит
Метод сжатия : С потерями

Общее
Полное имя : D:\Live Free Or Die Hard 4.0 (2007) DVD5 [Hurtom]\Live Free Or Die Hard 4.0 (2007) DVD5 [Hurtom].torrent
Размер файла : 23,3 Кбайт

Общее
Полное имя : D:\Live Free Or Die Hard 4.0 (2007) DVD5 [Hurtom]\VIDEO_TS\VIDEO_TS.BUP
Формат : DVD Video
Профиль формата : Menu
Размер файла : 14,0 Кбайт

Видео
Идентификатор : 224 (0xE0)
Формат : MPEG Video
Версия формата : Version 2
Вид битрейта : Переменный
Ширина : 720 пикс.
Высота : 576 пикс.
Соотношение сторон : 16:9
Частота кадров : 25,000 кадр/сек
Стандарт вещания : PAL
Метод сжатия : С потерями

Текст
Формат : RLE
Формат/Информация : Run-length encoding
Битовая глубина : 2 бит

Общее
Полное имя : D:\Live Free Or Die Hard 4.0 (2007) DVD5 [Hurtom]\VIDEO_TS\VIDEO_TS.IFO
Формат : DVD Video
Профиль формата : Menu
Размер файла : 14,0 Кбайт

Видео
Идентификатор : 224 (0xE0)
Формат : MPEG Video
Версия формата : Version 2
Вид битрейта : Переменный
Ширина : 720 пикс.
Высота : 576 пикс.
Соотношение сторон : 16:9
Частота кадров : 25,000 кадр/сек
Стандарт вещания : PAL
Метод сжатия : С потерями

Текст
Формат : RLE
Формат/Информация : Run-length encoding
Битовая глубина : 2 бит

Общее
Полное имя : D:\Live Free Or Die Hard 4.0 (2007) DVD5 [Hurtom]\VIDEO_TS\VIDEO_TS.VOB
Формат : MPEG-PS
Размер файла : 406 Кбайт
Продолжительность : 40 мс.
Общий поток : 83,1 Мбит/сек

Видео
Идентификатор : 224 (0xE0)
Формат : MPEG Video
Версия формата : Version 2
Профиль формата : [email protected]
Параметр BVOP формата : Нет
Параметр матрицы формата : По умолчанию
Параметры GOP формата : N=1
Продолжительность : 40 мс.
Вид битрейта : Переменный
Битрейт : 9800 Кбит/сек
Ширина : 720 пикс.
Высота : 576 пикс.
Соотношение сторон : 16:9
Частота кадров : 25,000 кадр/сек
Стандарт вещания : PAL
Цветовое пространство : YUV
Подвыборка цветности : 4:2:0
Битовая глубина : 8 бит
Тип развёртки : Прогрессивная
Порядок развёртки : Верхнее поле первое
Метод сжатия : С потерями
Бит/(Пиксели*Кадры) : 0.945
Размер потока : 47,9 Кбайт (12%)

Меню

Общее
Полное имя : D:\Live Free Or Die Hard 4.0 (2007) DVD5 [Hurtom]\VIDEO_TS\VTS_01_0.BUP
Формат : DVD Video
Профиль формата : Program
Размер файла : 74,0 Кбайт
Продолжительность : 2 ч. 3 м.
Общий поток : 81 бит/сек

Видео
Идентификатор : 224 (0xE0)
Формат : MPEG Video
Версия формата : Version 2
Продолжительность : 2 ч. 3 м.
Вид битрейта : Переменный
Ширина : 720 пикс.
Высота : 576 пикс.
Соотношение сторон : 16:9
Частота кадров : 25,000 кадр/сек
Стандарт вещания : PAL
Метод сжатия : С потерями

Аудио #1
Идентификатор : 128 (0x80)
Формат : AC-3
Формат/Информация : Audio Coding 3
Продолжительность : 2 ч. 3 м.
Канал(ы) : 6 канала(ов)
Частота : 48,0 КГц
Метод сжатия : С потерями
Язык : Russian

Аудио #2
Идентификатор : 137 (0x89)
Формат :
Формат/Информация : Digital Theater Systems
Продолжительность : 2 ч. 3 м.
Канал(ы) : 6 канала(ов)
Частота : 48,0 КГц
Метод сжатия : С потерями
Язык : Russian

Аудио #3
Идентификатор : 130 (0x82)
Формат : AC-3
Формат/Информация : Audio Coding 3
Продолжительность : 2 ч. 3 м.
Канал(ы) : 6 канала(ов)
Частота : 48,0 КГц
Метод сжатия : С потерями
Язык : Ukrainian

Текст #1
Идентификатор : 32 (0x20)
Формат : RLE
Формат/Информация : Run-length encoding
Битовая глубина : 2 бит
Язык : Kazakh

Текст #2
Идентификатор : 33 (0x21)
Формат : RLE
Формат/Информация : Run-length encoding
Битовая глубина : 2 бит
Язык : Russian

Текст #3
Идентификатор : 34 (0x22)
Формат : RLE
Формат/Информация : Run-length encoding
Битовая глубина : 2 бит
Язык : Ukrainian

Текст #4
Идентификатор : 35 (0x23)
Формат : RLE
Формат/Информация : Run-length encoding
Битовая глубина : 2 бит
Язык : Russian
Язык, дополнительно : Normal

Текст #5
Идентификатор : 36 (0x24)
Формат : RLE
Формат/Информация : Run-length encoding
Битовая глубина : 2 бит
Язык : Ukrainian
Язык, дополнительно : Normal

Меню
Продолжительность : 2 ч. 3 м.
00:00:00.000 : Chapter 1
00:08:40.440 : Chapter 2
00:18:22.880 : Chapter 3
00:25:20.280 : Chapter 4
00:32:23.160 : Chapter 5
00:41:19.280 : Chapter 6
00:48:23.280 : Chapter 7
00:55:15.720 : Chapter 8
01:02:45.400 : Chapter 9
01:11:50.160 : Chapter 10
01:20:33.360 : Chapter 11
01:28:35.040 : Chapter 12
01:36:53.120 : Chapter 13
01:45:24.680 : Chapter 14
01:59:03.200 : Chapter 15
02:03:24.200 : Chapter 16
List (Audio) : 0 / 1 / 2
List (Subtitles 4/3) : 0 / 0 / 0 / 0 / 0
List (Subtitles Wide) : 0 / 1 / 2 / 3 / 4
List (Subtitles Letterbox) : 0 / 1 / 2 / 3 / 4
List (Subtitles Pan&Scan) : 0 / 0 / 0 / 0 / 0

Общее
Полное имя : D:\Live Free Or Die Hard 4.0 (2007) DVD5 [Hurtom]\VIDEO_TS\VTS_01_0.IFO
Формат : DVD Video
Профиль формата : Program
Размер файла : 74,0 Кбайт
Продолжительность : 2 ч. 3 м.
Общий поток : 81 бит/сек

Видео
Идентификатор : 224 (0xE0)
Формат : MPEG Video
Версия формата : Version 2
Продолжительность : 2 ч. 3 м.
Вид битрейта : Переменный
Ширина : 720 пикс.
Высота : 576 пикс.
Соотношение сторон : 16:9
Частота кадров : 25,000 кадр/сек
Стандарт вещания : PAL
Метод сжатия : С потерями

Аудио #1
Идентификатор : 128 (0x80)
Формат : AC-3
Формат/Информация : Audio Coding 3
Продолжительность : 2 ч. 3 м.
Канал(ы) : 6 канала(ов)
Частота : 48,0 КГц
Метод сжатия : С потерями
Язык : Russian

Аудио #2
Идентификатор : 137 (0x89)
Формат :
Формат/Информация : Digital Theater Systems
Продолжительность : 2 ч. 3 м.
Канал(ы) : 6 канала(ов)
Частота : 48,0 КГц
Метод сжатия : С потерями
Язык : Russian

Аудио #3
Идентификатор : 130 (0x82)
Формат : AC-3
Формат/Информация : Audio Coding 3
Продолжительность : 2 ч. 3 м.
Канал(ы) : 6 канала(ов)
Частота : 48,0 КГц
Метод сжатия : С потерями
Язык : Ukrainian

Текст #1
Идентификатор : 32 (0x20)
Формат : RLE
Формат/Информация : Run-length encoding
Битовая глубина : 2 бит
Язык : Kazakh

Текст #2
Идентификатор : 33 (0x21)
Формат : RLE
Формат/Информация : Run-length encoding
Битовая глубина : 2 бит
Язык : Russian

Текст #3
Идентификатор : 34 (0x22)
Формат : RLE
Формат/Информация : Run-length encoding
Битовая глубина : 2 бит
Язык : Ukrainian

Текст #4
Идентификатор : 35 (0x23)
Формат : RLE
Формат/Информация : Run-length encoding
Битовая глубина : 2 бит
Язык : Russian
Язык, дополнительно : Normal

Текст #5
Идентификатор : 36 (0x24)
Формат : RLE
Формат/Информация : Run-length encoding
Битовая глубина : 2 бит
Язык : Ukrainian
Язык, дополнительно : Normal

Меню
Продолжительность : 2 ч. 3 м.
00:00:00.000 : Chapter 1
00:08:40.440 : Chapter 2
00:18:22.880 : Chapter 3
00:25:20.280 : Chapter 4
00:32:23.160 : Chapter 5
00:41:19.280 : Chapter 6
00:48:23.280 : Chapter 7
00:55:15.720 : Chapter 8
01:02:45.400 : Chapter 9
01:11:50.160 : Chapter 10
01:20:33.360 : Chapter 11
01:28:35.040 : Chapter 12
01:36:53.120 : Chapter 13
01:45:24.680 : Chapter 14
01:59:03.200 : Chapter 15
02:03:24.200 : Chapter 16
List (Audio) : 0 / 1 / 2
List (Subtitles 4/3) : 0 / 0 / 0 / 0 / 0
List (Subtitles Wide) : 0 / 1 / 2 / 3 / 4
List (Subtitles Letterbox) : 0 / 1 / 2 / 3 / 4
List (Subtitles Pan&Scan) : 0 / 0 / 0 / 0 / 0

Общее
Полное имя : D:\Live Free Or Die Hard 4.0 (2007) DVD5 [Hurtom]\VIDEO_TS\VTS_01_0.VOB
Формат : MPEG-PS
Размер файла : 43,4 Мбайт
Продолжительность : 39 с.
Общий поток : 9295 Кбит/сек

Видео
Идентификатор : 224 (0xE0)
Формат : MPEG Video
Версия формата : Version 2
Профиль формата : [email protected]
Параметр BVOP формата : Да
Параметр матрицы формата : По умолчанию
Продолжительность : 39 с.
Вид битрейта : Переменный
Битрейт : 8918 Кбит/сек
Ширина : 720 пикс.
Высота : 576 пикс.
Соотношение сторон : 16:9
Частота кадров : 25,000 кадр/сек
Стандарт вещания : PAL
Цветовое пространство : YUV
Подвыборка цветности : 4:2:0
Битовая глубина : 8 бит
Метод сжатия : С потерями
Бит/(Пиксели*Кадры) : 0.860
Размер потока : 41,6 Мбайт (96%)

Аудио
Идентификатор : 128 (0x80)
Формат : AC-3
Формат/Информация : Audio Coding 3
Расширение режима : CM (complete main)
Продолжительность : 39 с.
Вид битрейта : Постоянный
Битрейт : 192 Кбит/сек
Канал(ы) : 2 канала(ов)
Расположение каналов : Front: L R
Частота : 48,0 КГц
Битовая глубина : 16 бит
Метод сжатия : С потерями
Задержка видео : -48 мс.
Размер потока : 919 Кбайт (2%)

Текст #1
Идентификатор : 32 (0x20)
Формат : RLE
Формат/Информация : Run-length encoding
Задержка видео : -48 мс.

Текст #2
Идентификатор : 33 (0x21)
Формат : RLE
Формат/Информация : Run-length encoding
Задержка видео : -48 мс.

Меню

Общее
Полное имя : D:\Live Free Or Die Hard 4.0 (2007) DVD5 [Hurtom]\VIDEO_TS\VTS_01_1.VOB
Формат : MPEG-PS
Размер файла : 1024 Мбайт
Продолжительность : 31 м.
Общий поток : 4587 Кбит/сек

Видео
Идентификатор : 224 (0xE0)
Формат : MPEG Video
Версия формата : Version 2
Профиль формата : [email protected]
Параметр BVOP формата : Да
Параметр матрицы формата : По умолчанию
Параметры GOP формата : M=3, N=15
Продолжительность : 31 м.
Вид битрейта : Переменный
Битрейт : 2973 Кбит/сек
Номинальный битрейт : 7500 Кбит/сек
Ширина : 720 пикс.
Высота : 576 пикс.
Соотношение сторон : 16:9
Частота кадров : 25,000 кадр/сек
Стандарт вещания : PAL
Цветовое пространство : YUV
Подвыборка цветности : 4:2:0
Битовая глубина : 8 бит
Тип развёртки : Прогрессивная
Порядок развёртки : Верхнее поле первое
Метод сжатия : С потерями
Бит/(Пиксели*Кадры) : 0.287
Размер потока : 664 Мбайт (65%)

Аудио #1
Идентификатор : 128 (0x80)
Формат : AC-3
Формат/Информация : Audio Coding 3
Расширение режима : CM (complete main)
Продолжительность : 31 м.
Вид битрейта : Постоянный
Битрейт : 384 Кбит/сек
Канал(ы) : 6 канала(ов)
Расположение каналов : Front: L C R, Side: L R, LFE
Частота : 48,0 КГц
Битовая глубина : 16 бит
Метод сжатия : С потерями
Задержка видео : -88 мс.
Размер потока : 85,7 Мбайт (8%)

Аудио #2
Идентификатор : 130 (0x82)
Формат : AC-3
Формат/Информация : Audio Coding 3
Расширение режима : CM (complete main)
Продолжительность : 31 м.
Вид битрейта : Постоянный
Битрейт : 384 Кбит/сек
Канал(ы) : 6 канала(ов)
Расположение каналов : Front: L C R, Side: L R, LFE
Частота : 48,0 КГц
Битовая глубина : 16 бит
Метод сжатия : С потерями
Задержка видео : 920 мс.
Размер потока : 85,7 Мбайт (8%)

Аудио #3
Идентификатор : 137 (0x89)
Формат :
Формат/Информация : Digital Theater Systems
Продолжительность : 31 м.
Вид битрейта : Постоянный
Битрейт : 755 Кбит/сек
Канал(ы) : 6 канала(ов)
Расположение каналов : Front: L C R, Side: L R, LFE
Частота : 48,0 КГц
Битовая глубина : 24 бит
Метод сжатия : С потерями
Задержка видео : -88 мс.
Размер потока : 168 Мбайт (16%)

Текст #1
Идентификатор : 32 (0x20)
Формат : RLE
Формат/Информация : Run-length encoding

Текст #2
Идентификатор : 33 (0x21)
Формат : RLE
Формат/Информация : Run-length encoding

Текст #3
Идентификатор : 34 (0x22)
Формат : RLE
Формат/Информация : Run-length encoding

Меню

Общее
Полное имя : D:\Live Free Or Die Hard 4.0 (2007) DVD5 [Hurtom]\VIDEO_TS\VTS_01_2.VOB
Формат : MPEG-PS
Размер файла : 1024 Мбайт
Продолжительность : 29 м.
Общий поток : 4796 Кбит/сек

Видео
Идентификатор : 224 (0xE0)
Формат : MPEG Video
Версия формата : Version 2
Профиль формата : [email protected]
Параметр BVOP формата : Да
Параметр матрицы формата : По умолчанию
Параметры GOP формата : M=3, N=15
Продолжительность : 29 м.
Вид битрейта : Переменный
Битрейт : 3178 Кбит/сек
Номинальный битрейт : 7500 Кбит/сек
Ширина : 720 пикс.
Высота : 576 пикс.
Соотношение сторон : 16:9
Частота кадров : 25,000 кадр/сек
Стандарт вещания : PAL
Цветовое пространство : YUV
Подвыборка цветности : 4:2:0
Битовая глубина : 8 бит
Тип развёртки : Прогрессивная
Порядок развёртки : Верхнее поле первое
Метод сжатия : С потерями
Бит/(Пиксели*Кадры) : 0.307
Размер потока : 678 Мбайт (66%)

Аудио #1
Идентификатор : 128 (0x80)
Формат : AC-3
Формат/Информация : Audio Coding 3
Расширение режима : CM (complete main)
Продолжительность : 29 м.
Вид битрейта : Постоянный
Битрейт : 384 Кбит/сек
Канал(ы) : 6 канала(ов)
Расположение каналов : Front: L C R, Side: L R, LFE
Частота : 48,0 КГц
Битовая глубина : 16 бит
Метод сжатия : С потерями
Задержка видео : -448 мс.
Размер потока : 82,0 Мбайт (8%)

Аудио #2
Идентификатор : 130 (0x82)
Формат : AC-3
Формат/Информация : Audio Coding 3
Расширение режима : CM (complete main)
Продолжительность : 29 м.
Вид битрейта : Постоянный
Битрейт : 384 Кбит/сек
Канал(ы) : 6 канала(ов)
Расположение каналов : Front: L C R, Side: L R, LFE
Частота : 48,0 КГц
Битовая глубина : 16 бит
Метод сжатия : С потерями
Задержка видео : -496 мс.
Размер потока : 82,0 Мбайт (8%)

Аудио #3
Идентификатор : 137 (0x89)
Формат :
Формат/Информация : Digital Theater Systems
Продолжительность : 29 м.
Вид битрейта : Постоянный
Битрейт : 755 Кбит/сек
Канал(ы) : 6 канала(ов)
Расположение каналов : Front: L C R, Side: L R, LFE
Частота : 48,0 КГц
Битовая глубина : 24 бит
Метод сжатия : С потерями
Задержка видео : -512 мс.
Размер потока : 161 Мбайт (16%)

Текст #1
Идентификатор : 32 (0x20)
Формат : RLE
Формат/Информация : Run-length encoding

Текст #2
Идентификатор : 33 (0x21)
Формат : RLE
Формат/Информация : Run-length encoding

Текст #3
Идентификатор : 34 (0x22)
Формат : RLE
Формат/Информация : Run-length encoding
Задержка видео : 200 мс.

Меню

Общее
Полное имя : D:\Live Free Or Die Hard 4.0 (2007) DVD5 [Hurtom]\VIDEO_TS\VTS_01_3.VOB
Формат : MPEG-PS
Размер файла : 1024 Мбайт
Общий поток : 0

Видео
Идентификатор : 224 (0xE0)
Формат : MPEG Video
Версия формата : Version 2
Профиль формата : [email protected]
Параметр BVOP формата : Да
Параметр матрицы формата : По умолчанию
Параметры GOP формата : M=3, N=15
Вид битрейта : Переменный
Номинальный битрейт : 7500 Кбит/сек
Ширина : 720 пикс.
Высота : 576 пикс.
Соотношение сторон : 16:9
Частота кадров : 25,000 кадр/сек
Стандарт вещания : PAL
Цветовое пространство : YUV
Подвыборка цветности : 4:2:0
Битовая глубина : 8 бит
Тип развёртки : Прогрессивная
Порядок развёртки : Верхнее поле первое
Метод сжатия : С потерями
Бит/(Пиксели*Кадры) : 0.723

Аудио #1
Идентификатор : 128 (0x80)
Формат : AC-3
Формат/Информация : Audio Coding 3
Расширение режима : CM (complete main)
Продолжительность : -1 ч. 0 м.
Вид битрейта : Постоянный
Битрейт : 384 Кбит/сек
Канал(ы) : 6 канала(ов)
Расположение каналов : Front: L C R, Side: L R, LFE
Частота : 48,0 КГц
Битовая глубина : 16 бит
Метод сжатия : С потерями
Задержка видео : -208 мс.
Размер потока : 2,05 ?iB

Аудио #2
Идентификатор : 130 (0x82)
Формат : AC-3
Формат/Информация : Audio Coding 3
Расширение режима : CM (complete main)
Продолжительность : -1 ч. 0 м.
Вид битрейта : Постоянный
Битрейт : 384 Кбит/сек
Канал(ы) : 6 канала(ов)
Расположение каналов : Front: L C R, Side: L R, LFE
Частота : 48,0 КГц
Битовая глубина : 16 бит
Метод сжатия : С потерями
Задержка видео : -224 мс.
Размер потока : 2,05 ?iB

Аудио #3
Идентификатор : 137 (0x89)
Формат :
Формат/Информация : Digital Theater Systems
Продолжительность : -1 ч. 0 м.
Вид битрейта : Постоянный
Битрейт : 755 Кбит/сек
Канал(ы) : 6 канала(ов)
Расположение каналов : Front: L C R, Side: L R, LFE
Частота : 48,0 КГц
Битовая глубина : 24 бит
Метод сжатия : С потерями
Задержка видео : -240 мс.
Размер потока : 2,05 ?iB

Текст #1
Идентификатор : 32 (0x20)
Формат : RLE
Формат/Информация : Run-length encoding

Текст #2
Идентификатор : 33 (0x21)
Формат : RLE
Формат/Информация : Run-length encoding

Текст #3
Идентификатор : 34 (0x22)
Формат : RLE
Формат/Информация : Run-length encoding

Меню

Общее
Полное имя : D:\Live Free Or Die Hard 4.0 (2007) DVD5 [Hurtom]\VIDEO_TS\VTS_01_4.VOB
Формат : MPEG-PS
Размер файла : 999 Мбайт
Продолжительность : 30 м.
Общий поток : 4598 Кбит/сек

Видео
Идентификатор : 224 (0xE0)
Формат : MPEG Video
Версия формата : Version 2
Профиль формата : [email protected]
Параметр BVOP формата : Да
Параметр матрицы формата : По умолчанию
Параметры GOP формата : M=3, N=15
Продолжительность : 30 м.
Вид битрейта : Переменный
Битрейт : 2984 Кбит/сек
Номинальный битрейт : 7500 Кбит/сек
Ширина : 720 пикс.
Высота : 576 пикс.
Соотношение сторон : 16:9
Частота кадров : 25,000 кадр/сек
Стандарт вещания : PAL
Цветовое пространство : YUV
Подвыборка цветности : 4:2:0
Битовая глубина : 8 бит
Тип развёртки : Прогрессивная
Порядок развёртки : Верхнее поле первое
Метод сжатия : С потерями
Бит/(Пиксели*Кадры) : 0.288
Размер потока : 648 Мбайт (65%)

Аудио #1
Идентификатор : 128 (0x80)
Формат : AC-3
Формат/Информация : Audio Coding 3
Расширение режима : CM (complete main)
Продолжительность : 30 м.
Вид битрейта : Постоянный
Битрейт : 384 Кбит/сек
Канал(ы) : 6 канала(ов)
Расположение каналов : Front: L C R, Side: L R, LFE
Частота : 48,0 КГц
Битовая глубина : 16 бит
Метод сжатия : С потерями
Задержка видео : -544 мс.
Размер потока : 83,5 Мбайт (8%)

Аудио #2
Идентификатор : 130 (0x82)
Формат : AC-3
Формат/Информация : Audio Coding 3
Расширение режима : CM (complete main)
Продолжительность : 30 м.
Вид битрейта : Постоянный
Битрейт : 384 Кбит/сек
Канал(ы) : 6 канала(ов)
Расположение каналов : Front: L C R, Side: L R, LFE
Частота : 48,0 КГц
Битовая глубина : 16 бит
Метод сжатия : С потерями
Задержка видео : -560 мс.
Размер потока : 83,5 Мбайт (8%)

Аудио #3
Идентификатор : 137 (0x89)
Формат :
Формат/Информация : Digital Theater Systems
Продолжительность : 30 м.
Вид битрейта : Постоянный
Битрейт : 755 Кбит/сек
Канал(ы) : 6 канала(ов)
Расположение каналов : Front: L C R, Side: L R, LFE
Частота : 48,0 КГц
Битовая глубина : 24 бит
Метод сжатия : С потерями
Задержка видео : -598 мс.
Размер потока : 164 Мбайт (16%)

Текст #1
Идентификатор : 32 (0x20)
Формат : RLE
Формат/Информация : Run-length encoding
Продолжительность : 30 м.
Задержка видео : -520 мс.

Текст #2
Идентификатор : 33 (0x21)
Формат : RLE
Формат/Информация : Run-length encoding
Продолжительность : 30 м.
Задержка видео : -400 мс.

Текст #3
Идентификатор : 34 (0x22)
Формат : RLE
Формат/Информация : Run-length encoding
Продолжительность : 30 м.
Задержка видео : -320 мс.

Текст #4
Идентификатор : 35 (0x23)
Формат : RLE
Формат/Информация : Run-length encoding

Текст #5
Идентификатор : 36 (0x24)
Формат : RLE
Формат/Информация : Run-length encoding

Меню

Общее
Полное имя : D:\Live Free Or Die Hard 4.0 (2007) DVD5 [Hurtom]\VIDEO_TS\VTS_02_0.BUP
Формат : DVD Video
Профиль формата : Program
Размер файла : 18,0 Кбайт
Продолжительность : 27 с.
Общий поток : 5397 бит/сек

Видео
Идентификатор : 224 (0xE0)
Формат : MPEG Video
Версия формата : Version 2
Продолжительность : 27 с.
Вид битрейта : Переменный
Ширина : 720 пикс.
Высота : 576 пикс.
Соотношение сторон : 16:9
Частота кадров : 25,000 кадр/сек
Стандарт вещания : PAL
Метод сжатия : С потерями

Аудио
Идентификатор : 128 (0x80)
Формат : AC-3
Формат/Информация : Audio Coding 3
Продолжительность : 27 с.
Канал(ы) : 6 канала(ов)
Частота : 48,0 КГц
Метод сжатия : С потерями
Язык : Russian

Меню
Продолжительность : 27 с.
00:00:00.000 : Chapter 1
00:00:26.840 : Chapter 2
List (Audio) : 0

Общее
Полное имя : D:\Live Free Or Die Hard 4.0 (2007) DVD5 [Hurtom]\VIDEO_TS\VTS_02_0.IFO
Формат : DVD Video
Профиль формата : Program
Размер файла : 18,0 Кбайт
Продолжительность : 27 с.
Общий поток : 5397 бит/сек

Видео
Идентификатор : 224 (0xE0)
Формат : MPEG Video
Версия формата : Version 2
Продолжительность : 27 с.
Вид битрейта : Переменный
Ширина : 720 пикс.
Высота : 576 пикс.
Соотношение сторон : 16:9
Частота кадров : 25,000 кадр/сек
Стандарт вещания : PAL
Метод сжатия : С потерями

Аудио
Идентификатор : 128 (0x80)
Формат : AC-3
Формат/Информация : Audio Coding 3
Продолжительность : 27 с.
Канал(ы) : 6 канала(ов)
Частота : 48,0 КГц
Метод сжатия : С потерями
Язык : Russian

Меню
Продолжительность : 27 с.
00:00:00.000 : Chapter 1
00:00:26.840 : Chapter 2
List (Audio) : 0

Общее
Полное имя : D:\Live Free Or Die Hard 4.0 (2007) DVD5 [Hurtom]\VIDEO_TS\VTS_02_0.VOB
Формат : MPEG-PS
Размер файла : 10,0 Кбайт
Продолжительность : 40 мс.
Общий поток : 2048 Кбит/сек

Видео
Идентификатор : 224 (0xE0)
Формат : MPEG Video
Версия формата : Version 2
Профиль формата : [email protected]
Параметр BVOP формата : Нет
Параметр матрицы формата : По умолчанию
Продолжительность : 40 мс.
Вид битрейта : Переменный
Битрейт : 9800 Кбит/сек
Ширина : 720 пикс.
Высота : 576 пикс.
Соотношение сторон : 16:9
Частота кадров : 25,000 кадр/сек
Стандарт вещания : PAL
Цветовое пространство : YUV
Подвыборка цветности : 4:2:0
Битовая глубина : 8 бит
Тип развёртки : Прогрессивная
Порядок развёртки : Верхнее поле первое
Метод сжатия : С потерями
Бит/(Пиксели*Кадры) : 0.945
Размер потока : 47,9 Кбайт

Меню

Общее
Полное имя : D:\Live Free Or Die Hard 4.0 (2007) DVD5 [Hurtom]\VIDEO_TS\VTS_02_1.VOB
Формат : MPEG-PS
Размер файла : 14,3 Мбайт
Продолжительность : 619 мс.
Общий поток : 193 Мбит/сек

Видео
Идентификатор : 224 (0xE0)
Формат : MPEG Video
Версия формата : Version 2
Профиль формата : [email protected]
Параметр BVOP формата : Да
Параметр матрицы формата : По умолчанию
Параметры GOP формата : M=3, N=15
Продолжительность : 35 мс.
Вид битрейта : Переменный
Битрейт : 7500 Кбит/сек
Ширина : 720 пикс.
Высота : 576 пикс.
Соотношение сторон : 16:9
Частота кадров : 25,000 кадр/сек
Стандарт вещания : PAL
Цветовое пространство : YUV
Подвыборка цветности : 4:2:0
Битовая глубина : 8 бит
Тип развёртки : Прогрессивная
Порядок развёртки : Верхнее поле первое
Метод сжатия : С потерями
Бит/(Пиксели*Кадры) : 0.723
Размер потока : 32,0 Кбайт (0%)

Аудио
Идентификатор : 128 (0x80)
Формат : AC-3
Формат/Информация : Audio Coding 3
Расширение режима : CM (complete main)
Продолжительность : 619 мс.
Вид битрейта : Постоянный
Битрейт : 384 Кбит/сек
Канал(ы) : 6 канала(ов)
Расположение каналов : Front: L C R, Side: L R, LFE
Частота : 48,0 КГц
Битовая глубина : 16 бит
Метод сжатия : С потерями
Задержка видео : -112 мс.
Размер потока : 29,0 Кбайт (0%)

Меню

Общее
Полное имя : D:\Live Free Or Die Hard 4.0 (2007) DVD5 [Hurtom]\VIDEO_TS\VTS_03_0.BUP
Формат : DVD Video
Профиль формата : Program
Размер файла : 18,0 Кбайт
Продолжительность : 44 с.
Общий поток : 3300 бит/сек

Видео
Идентификатор : 224 (0xE0)
Формат : MPEG Video
Версия формата : Version 2
Продолжительность : 44 с.
Вид битрейта : Переменный
Ширина : 720 пикс.
Высота : 576 пикс.
Соотношение сторон : 4:3
Частота кадров : 25,000 кадр/сек
Стандарт вещания : PAL
Метод сжатия : С потерями

Аудио
Идентификатор : 128 (0x80)
Формат : AC-3
Формат/Информация : Audio Coding 3
Продолжительность : 44 с.
Канал(ы) : 2 канала(ов)
Частота : 48,0 КГц
Метод сжатия : С потерями

Меню
Продолжительность : 44 с.
00:00:00.000 : Chapter 1
00:00:44.200 : Chapter 2
List (Audio) : 0

Общее
Полное имя : D:\Live Free Or Die Hard 4.0 (2007) DVD5 [Hurtom]\VIDEO_TS\VTS_03_0.IFO
Формат : DVD Video
Профиль формата : Program
Размер файла : 18,0 Кбайт
Продолжительность : 44 с.
Общий поток : 3300 бит/сек

Видео
Идентификатор : 224 (0xE0)
Формат : MPEG Video
Версия формата : Version 2
Продолжительность : 44 с.
Вид битрейта : Переменный
Ширина : 720 пикс.
Высота : 576 пикс.
Соотношение сторон : 4:3
Частота кадров : 25,000 кадр/сек
Стандарт вещания : PAL
Метод сжатия : С потерями

Аудио
Идентификатор : 128 (0x80)
Формат : AC-3
Формат/Информация : Audio Coding 3
Продолжительность : 44 с.
Канал(ы) : 2 канала(ов)
Частота : 48,0 КГц
Метод сжатия : С потерями

Меню
Продолжительность : 44 с.
00:00:00.000 : Chapter 1
00:00:44.200 : Chapter 2
List (Audio) : 0

Общее
Полное имя : D:\Live Free Or Die Hard 4.0 (2007) DVD5 [Hurtom]\VIDEO_TS\VTS_03_0.VOB
Формат : MPEG-PS
Размер файла : 10,0 Кбайт
Продолжительность : 40 мс.
Общий поток : 2048 Кбит/сек

Видео
Идентификатор : 224 (0xE0)
Формат : MPEG Video
Версия формата : Version 2
Профиль формата : [email protected]
Параметр BVOP формата : Нет
Параметр матрицы формата : По умолчанию
Продолжительность : 40 мс.
Вид битрейта : Переменный
Битрейт : 9800 Кбит/сек
Ширина : 720 пикс.
Высота : 576 пикс.
Соотношение сторон : 16:9
Частота кадров : 25,000 кадр/сек
Стандарт вещания : PAL
Цветовое пространство : YUV
Подвыборка цветности : 4:2:0
Битовая глубина : 8 бит
Тип развёртки : Прогрессивная
Порядок развёртки : Верхнее поле первое
Метод сжатия : С потерями
Бит/(Пиксели*Кадры) : 0.945
Размер потока : 47,9 Кбайт

Меню

Общее
Полное имя : D:\Live Free Or Die Hard 4.0 (2007) DVD5 [Hurtom]\VIDEO_TS\VTS_03_1.VOB
Формат : MPEG-PS
Размер файла : 21,1 Мбайт
Продолжительность : 44 с.
Общий поток : 4002 Кбит/сек

Видео
Идентификатор : 224 (0xE0)
Формат : MPEG Video
Версия формата : Version 2
Профиль формата : [email protected]
Параметр BVOP формата : Да
Параметр матрицы формата : По умолчанию
Параметры GOP формата : M=3, N=12
Продолжительность : 115 мс.
Вид битрейта : Переменный
Битрейт : 3730 Кбит/сек
Номинальный битрейт : 7000 Кбит/сек
Ширина : 720 пикс.
Высота : 576 пикс.
Соотношение сторон : 4:3
Частота кадров : 25,000 кадр/сек
Стандарт вещания : PAL
Цветовое пространство : YUV
Подвыборка цветности : 4:2:0
Битовая глубина : 8 бит
Тип развёртки : Чересстрочная
Порядок развёртки : Верхнее поле первое
Метод сжатия : С потерями
Бит/(Пиксели*Кадры) : 0.360
Размер потока : 52,4 Кбайт (0%)

Аудио
Идентификатор : 128 (0x80)
Формат : AC-3
Формат/Информация : Audio Coding 3
Расширение режима : CM (complete main)
Продолжительность : 44 с.
Вид битрейта : Постоянный
Битрейт : 192 Кбит/сек
Канал(ы) : 2 канала(ов)
Расположение каналов : Front: L R
Частота : 48,0 КГц
Битовая глубина : 16 бит
Метод сжатия : С потерями
Размер потока : 1,01 Мбайт (5%)

Меню

Общее
Полное имя : D:\Live Free Or Die Hard 4.0 (2007) DVD5 [Hurtom]\VIDEO_TS\VTS_04_0.BUP
Формат : DVD Video
Профиль формата : Program
Размер файла : 20,0 Кбайт
Продолжительность : 4 м. 27 с.
Общий поток : 612 бит/сек

Видео
Идентификатор : 224 (0xE0)
Формат : MPEG Video
Версия формата : Version 2
Продолжительность : 4 м. 27 с.
Вид битрейта : Переменный
Ширина : 720 пикс.
Высота : 576 пикс.
Соотношение сторон : 4:3
Частота кадров : 25,000 кадр/сек
Стандарт вещания : PAL
Метод сжатия : С потерями

Аудио #1
Формат : AC-3
Формат/Информация : Audio Coding 3
Продолжительность : 4 м. 27 с.
Канал(ы) : 6 канала(ов)
Частота : 48,0 КГц
Метод сжатия : С потерями
Язык : Russian

Аудио #2
Формат : AC-3
Формат/Информация : Audio Coding 3
Продолжительность : 4 м. 27 с.
Канал(ы) : 6 канала(ов)
Частота : 48,0 КГц
Метод сжатия : С потерями
Язык : Russian

Аудио #3
Формат : AC-3
Формат/Информация : Audio Coding 3
Продолжительность : 4 м. 27 с.
Канал(ы) : 6 канала(ов)
Частота : 48,0 КГц
Метод сжатия : С потерями
Язык : Ukrainian

Аудио #4
Идентификатор : 131 (0x83)
Формат : AC-3
Формат/Информация : Audio Coding 3
Продолжительность : 4 м. 27 с.
Канал(ы) : 2 канала(ов)
Частота : 48,0 КГц
Метод сжатия : С потерями
Язык : Russian

Аудио #5
Идентификатор : 132 (0x84)
Формат : AC-3
Формат/Информация : Audio Coding 3
Продолжительность : 4 м. 27 с.
Канал(ы) : 2 канала(ов)
Частота : 48,0 КГц
Метод сжатия : С потерями
Язык : English

Текст #1
Идентификатор : 32 (0x20)
Формат : RLE
Формат/Информация : Run-length encoding
Битовая глубина : 2 бит
Язык : Kazakh

Текст #2
Идентификатор : 32 (0x20)
Формат : RLE
Формат/Информация : Run-length encoding
Битовая глубина : 2 бит
Язык : Russian

Текст #3
Идентификатор : 32 (0x20)
Формат : RLE
Формат/Информация : Run-length encoding
Битовая глубина : 2 бит
Язык : Ukrainian

Текст #4
Идентификатор : 32 (0x20)
Формат : RLE
Формат/Информация : Run-length encoding
Битовая глубина : 2 бит
Язык : Russian
Язык, дополнительно : Normal

Текст #5
Идентификатор : 32 (0x20)
Формат : RLE
Формат/Информация : Run-length encoding
Битовая глубина : 2 бит
Язык : Ukrainian
Язык, дополнительно : Normal

Меню #1
Продолжительность : 3 м. 22 с.
00:00:00.000 : Chapter 1
00:03:21.920 : Chapter 2
List (Audio) : 3
List (Subtitles 4/3) : 0 / 0 / 0 / 0 / 0
List (Subtitles Wide) : 0 / 0 / 0 / 0 / 0
List (Subtitles Letterbox) : 0 / 0 / 0 / 0 / 0
List (Subtitles Pan&Scan) : 0 / 0 / 0 / 0 / 0

Меню #2
Продолжительность : 4 м. 27 с.
00:00:00.000 : Chapter 1
00:04:27.040 : Chapter 2
List (Audio) : 4
List (Subtitles 4/3) : 0 / 0 / 0 / 0 / 0
List (Subtitles Wide) : 0 / 0 / 0 / 0 / 0
List (Subtitles Letterbox) : 0 / 0 / 0 / 0 / 0
List (Subtitles Pan&Scan) : 0 / 0 / 0 / 0 / 0

Общее
Полное имя : D:\Live Free Or Die Hard 4.0 (2007) DVD5 [Hurtom]\VIDEO_TS\VTS_04_0.IFO
Формат : DVD Video
Профиль формата : Program
Размер файла : 20,0 Кбайт
Продолжительность : 4 м. 27 с.
Общий поток : 612 бит/сек

Видео
Идентификатор : 224 (0xE0)
Формат : MPEG Video
Версия формата : Version 2
Продолжительность : 4 м. 27 с.
Вид битрейта : Переменный
Ширина : 720 пикс.
Высота : 576 пикс.
Соотношение сторон : 4:3
Частота кадров : 25,000 кадр/сек
Стандарт вещания : PAL
Метод сжатия : С потерями

Аудио #1
Формат : AC-3
Формат/Информация : Audio Coding 3
Продолжительность : 4 м. 27 с.
Канал(ы) : 6 канала(ов)
Частота : 48,0 КГц
Метод сжатия : С потерями
Язык : Russian

Аудио #2
Формат : AC-3
Формат/Информация : Audio Coding 3
Продолжительность : 4 м. 27 с.
Канал(ы) : 6 канала(ов)
Частота : 48,0 КГц
Метод сжатия : С потерями
Язык : Russian

Аудио #3
Формат : AC-3
Формат/Информация : Audio Coding 3
Продолжительность : 4 м. 27 с.
Канал(ы) : 6 канала(ов)
Частота : 48,0 КГц
Метод сжатия : С потерями
Язык : Ukrainian

Аудио #4
Идентификатор : 131 (0x83)
Формат : AC-3
Формат/Информация : Audio Coding 3
Продолжительность : 4 м. 27 с.
Канал(ы) : 2 канала(ов)
Частота : 48,0 КГц
Метод сжатия : С потерями
Язык : Russian

Аудио #5
Идентификатор : 132 (0x84)
Формат : AC-3
Формат/Информация : Audio Coding 3
Продолжительность : 4 м. 27 с.
Канал(ы) : 2 канала(ов)
Частота : 48,0 КГц
Метод сжатия : С потерями
Язык : English

Текст #1
Идентификатор : 32 (0x20)
Формат : RLE
Формат/Информация : Run-length encoding
Битова
weber 
Почесний гуртомівець


З нами з: 03.08.08
Востаннє: 07.12.16
Повідомлень: 7003

2011-01-03 00:21  
Відкрийте шматок відео скажімо в віртуалдабі і подивіться.
За такого сумарного бітрейту і тривалості розмір даного двд має складати близько 10 ГБ

carrera_zola 
Поважний учасник


З нами з: 31.10.10
Востаннє: 31.05.15
Повідомлень: 160

2011-01-03 10:43  

weber 
Почесний гуртомівець


З нами з: 03.08.08
Востаннє: 07.12.16
Повідомлень: 7003

2011-01-04 17:51  
Інша справа, дякую.
roadrunner 
Новенький


З нами з: 29.08.10
Востаннє: 06.05.16
Повідомлень: 3

2011-02-23 22:49  
Прохання піддати швидкості, хто може!!! Треба звантажити.
roadrunner 
Новенький


З нами з: 29.08.10
Востаннє: 06.05.16
Повідомлень: 3

2011-02-24 19:48  
Велике прохання, хто звантажив, станьте на роздачу!!! Половниу звантажив і вклякло...
ALFROMEDA 
Відео Гуртом - підтримка та поширення
Відео Гуртом - підтримка та поширення


З нами з: 09.07.12
Востаннє: 08.12.16
Повідомлень: 212

2013-07-05 15:31  
роздайте будь ласка
ALFROMEDA 
Відео Гуртом - підтримка та поширення
Відео Гуртом - підтримка та поширення


З нами з: 09.07.12
Востаннє: 08.12.16
Повідомлень: 212

2013-07-07 16:56  
ALFROMEDA написано:
роздайте будь ласка

ALFROMEDA 
Відео Гуртом - підтримка та поширення
Відео Гуртом - підтримка та поширення


З нами з: 09.07.12
Востаннє: 08.12.16
Повідомлень: 212

2013-07-09 13:01  
дайте швидкості 30% поки скачав
роздаватиму все літо

Ваш часовий пояс: GMT + 2 Години

Нова тема   Відповісти