Завантажити та скачати торренти українською


Viter - Dzherelo (EP) (2010) [FLAC] | Folk Metal

Нові коментарі

Нова тема   Відповісти
Останній раз роздавалося Gxost (2016-12-07)
Автор Повідомлення
Lev 
VIP


З нами з: 14.10.09
Востаннє: 05.12.16
Повідомлень: 1819

2010-12-28 23:46  
Viter - Dzherelo (EP) (2010) [FLAC] | Folk Metal



Стиль: Folk Metal
Країна, місто: Україна, Львів
Сайти: Офіційний сайт
Видавець: Casus Belli Musica
Виконавці:
Viterzgir - вокал, гітара, бас, традиційні інструменти (Apostate (Ukr), Liturgy for Nosferatu, Molphar, Capitollium, Dragobrath, Ruina, Leadhaze, Kroda (Ukr))
Volkovlad - гітара (Goverla)
Tur - ударні
Sudymyr - клавіші (Goverla)
Пісні:
    01. Dzherelo (04:50)
    02. Krov Tikae (06:14)
    03. Sny Hmar (03:08)
    04. Vidrizh (06:18)

Тривалість: 00:20:27
Мова: українська
Аудіо-кодек: FLAC
Бітрейт: 1015 кб/с
Джерело: інший трекер
Додаткова інформація:
log EAC
Exact Audio Copy V0.99 prebeta 4 from 23. January 2008

EAC extraction logfile from 22. November 2010, 21:33

Viter / Dzherelo

Used drive : Optiarc DVD RW AD-7243S Adapter: 2 ID: 0

Read mode : Secure
Utilize accurate stream : Yes
Defeat audio cache : Yes
Make use of C2 pointers : No

Read offset correction : 48
Overread into Lead-In and Lead-Out : No
Fill up missing offset samples with silence : Yes
Delete leading and trailing silent blocks : No
Null samples used in CRC calculations : Yes
Used interface : Installed external ASPI interface

Used output format : User Defined Encoder
Selected bitrate : 768 kBit/s
Quality : High
Add ID3 tag : No
Command line compressor : C:\Program Files\Exact Audio Copy\FLAC\FLAC.EXE
Additional command line options : -6 -V -T "ARTIST=%a" -T "TITLE=%t" -T "ALBUM=%g" -T "DATE=%y" -T "TRACKNUMBER=%n" -T "GENRE=%m" -T "COMMENT=%e" %s -o %d

TOC of the extracted CD

Track | Start | Length | Start sector | End sector
---------------------------------------------------------
1 | 0:00.00 | 4:49.73 | 0 | 21747
2 | 4:49.73 | 6:14.28 | 21748 | 49825
3 | 11:04.26 | 3:07.72 | 49826 | 63922
4 | 14:12.23 | 6:17.45 | 63923 | 92242

Range status and errors

Selected range

Filename E:\Viter - Dzherelo.wav

Peak level 100.0 %
Range quality 100.0 %
Test CRC F1CE0CE9
Copy CRC F1CE0CE9
Copy OK

No errors occurred

AccurateRip summary

Track 1 not present in database
Track 2 not present in database
Track 3 not present in database
Track 4 not present in database

None of the tracks are present in the AccurateRip database

End of status report
Перший реліз нового проекту Viterzgir'а - у найкращій якості.


Також на Торрент-Толоці Гуртом ви можете знайти :

Viter - Dzherelo (EP) (2010)[MP3]


Якщо Ви справді бажаєте підтримати українське - після прослуховування, якщо музика вам сподобалась, придбайте ліцензійний диск. Підтримаймо вітчизняних виконавців!


Срібний реліз (на рейтинг впливає 50% завантаженого)
 Трекер:    Зареєстрований   

Завантажити / скачати українську музику



відео для новачків



 Зареєстрований:   2010-12-28 23:46
 Розмір:   149 MB 
 Оцінка музики:   10/10 (Голосів: 16)
   
ssTAss 
Модератор музики


З нами з: 05.07.08
Востаннє: 07.12.16
Повідомлень: 10947

2010-12-28 23:59  
Lev написано:
Бітрейт: кб/с

вкажіть числове значення

Lev 
VIP


З нами з: 14.10.09
Востаннє: 05.12.16
Повідомлень: 1819

2010-12-29 00:05  
ssTAss написано:
вкажіть числове значення

зараз допишу

ingwar 
Модератор літератури


З нами з: 08.03.08
Востаннє: 07.12.16
Повідомлень: 1200

2011-04-21 18:52  
Гарна група Happy
Ваш часовий пояс: GMT + 2 Години

Нова тема   Відповісти