Завантажити та скачати торренти українською


Олесь Доній та Калєкція - Молода Україна Forever (2002) [FLAC] | Alternative rock

Нові коментарі

Нова тема   Відповісти
Автор Повідомлення
Lev 
VIP


З нами з: 14.10.09
Востаннє: 05.12.16
Повідомлень: 1819

2010-12-27 14:59  
Олесь Доній та Калєкція - Молода Україна Forever (2002) [FLAC] | Alternative Rock



Стиль: Alternative Rock
Країна, місто: Україна, Харків-Київ
Видавець: Атлантік
Виконавці:

Олесь Доній – спів

Гурт “Калєкція”:

Генадій "Професор" М'ясоедов – гітара, беквокал
Сергій "Етзигейтс" Балалаєв – барабани
Ярослав "Ярко" Рудницький – бас, бек-вокал
Олексій "LEXX” Єськов – баян, бек-вокал

Запрошені музиканти:

Євген Кузьмов – саксофон
Євген Ципак – труба
Денис Клименко – тромбон
Василь Пасичинський – скрипка
Катерина Ляшенко – бандура

Пісні:
    01. Дума про слоника (01:14)
    02. Гаудеамус (02:47)
    03. Будьонівський марш (02:51)
    04. Жовтень 90-го (02:54)
    05. В небі канареєчка літає (03:47)
    06. Алілуйя (04:00)
    07. Cosa Nostra (04:12)
    08. В синє море (03:12)
    09. Гімн молодої України (03:04)
    10. Карусель (02:49)
    11. Громадянська війна (03:26)
    log EAC
    Exact Audio Copy V0.99 prebeta 4 from 23. January 2008

    Звіт EAC про видобування, котре виконане 16. квітня 2010, 19:23

    Олесь Доній та Калєкція / Молода Україна Forever

    Дисковод: TSSTcorpCDDVDW SH-S202J Adapter: 1 ID: 1

    Режим читання : Точний
    Використати точний потік : Так
    Вимкнути аудіо кеш : Так
    Застосувати мітки C2 : Ні

    Корекція зміщення при читанні : 6
    Екстрачитання областей Lead-in і Lead-out : Ні
    Заповнення пропущених семплів тишею : Так
    Видалення блоків з тишею на початку і кінці : Ні
    При вирахуванні CRC використовувались нульові семпли : Так
    Використаний інтерфейс : Встановлений зовнішній ASPI-інтерфейс
    Поводження з проміжками : Приєднано до попереднього трека

    Застосований вихідний формат : Кодер Користувача
    Обраний бітрейт : 128 kBit/s
    Якість : Високий
    Додати тег ID3 : Ні
    Компресор командного рядка : C:\Program Files\FLAC\flac.exe
    Додаткові параметри командного рядка : -8 -V -T "ARIST=%a" -T "TITLE=%t" -T "ALBUM=%g" -T "DATE=%y" -T "TRACKNUMBER=%n" -T "GENRE=%m" -T "COMMENT=EAC FLAC -8" %s

    TOC видобутого CD

    Трек | Старт | Довжина | Початковий сектор | Кінцевий сектор
    ------------------------------------------------------------------
    1 | 0:00.00 | 1:13.40 | 0 | 5514
    2 | 1:13.40 | 2:46.61 | 5515 | 18025
    3 | 4:00.26 | 2:50.57 | 18026 | 30832
    4 | 6:51.08 | 2:54.22 | 30833 | 43904
    5 | 9:45.30 | 3:47.14 | 43905 | 60943
    6 | 13:32.44 | 3:59.63 | 60944 | 78931
    7 | 17:32.32 | 4:11.39 | 78932 | 97795
    8 | 21:43.71 | 3:12.27 | 97796 | 112222
    9 | 24:56.23 | 3:04.25 | 112223 | 126047
    10 | 28:00.48 | 2:49.31 | 126048 | 138753
    11 | 30:50.04 | 3:25.71 | 138754 | 154199

    Трек 1

    Ім'я файлу C:\Documents and Settings\Admin\Рабочий стол\Калєкція\01. Олесь Доній та Калєкція - Дума про слоника.wav

    Довжина проміжка 0:00:02.00

    Піковий рівень 88.8 %
    Якість трека 100.0 %
    CRC тесту 6683EA24
    CRC копії 6683EA24
    Трек не присутній в базі Точного Видобування
    Копіювання... OK

    Трек 2

    Ім'я файлу C:\Documents and Settings\Admin\Рабочий стол\Калєкція\02. Олесь Доній та Калєкція - Гаудеамус.wav

    Довжина проміжка 0:00:02.00

    Піковий рівень 100.0 %
    Якість трека 100.0 %
    CRC тесту 6D8824E9
    CRC копії 6D8824E9
    Трек не присутній в базі Точного Видобування
    Копіювання... OK

    Трек 3

    Ім'я файлу C:\Documents and Settings\Admin\Рабочий стол\Калєкція\03. Олесь Доній та Калєкція - Будьонівський марш.wav

    Довжина проміжка 0:00:02.00

    Піковий рівень 96.5 %
    Якість трека 100.0 %
    CRC тесту A7B4C296
    CRC копії A7B4C296
    Трек не присутній в базі Точного Видобування
    Копіювання... OK

    Трек 4

    Ім'я файлу C:\Documents and Settings\Admin\Рабочий стол\Калєкція\04. Олесь Доній та Калєкція - Жовтень 90-го.wav

    Довжина проміжка 0:00:02.00

    Піковий рівень 100.0 %
    Якість трека 100.0 %
    CRC тесту E387BD5C
    CRC копії E387BD5C
    Трек не присутній в базі Точного Видобування
    Копіювання... OK

    Трек 5

    Ім'я файлу C:\Documents and Settings\Admin\Рабочий стол\Калєкція\05. Олесь Доній та Калєкція - В небі канареєчка літає.wav

    Довжина проміжка 0:00:02.00

    Піковий рівень 100.0 %
    Якість трека 100.0 %
    CRC тесту 96186B8B
    CRC копії 96186B8B
    Трек не присутній в базі Точного Видобування
    Копіювання... OK

    Трек 6

    Ім'я файлу C:\Documents and Settings\Admin\Рабочий стол\Калєкція\06. Олесь Доній та Калєкція - Алілуйя.wav

    Довжина проміжка 0:00:02.00

    Піковий рівень 100.0 %
    Якість трека 100.0 %
    CRC тесту F15BAE5A
    CRC копії F15BAE5A
    Трек не присутній в базі Точного Видобування
    Копіювання... OK

    Трек 7

    Ім'я файлу C:\Documents and Settings\Admin\Рабочий стол\Калєкція\07. Олесь Доній та Калєкція - Cosa nostra.wav

    Довжина проміжка 0:00:02.00

    Піковий рівень 100.0 %
    Якість трека 100.0 %
    CRC тесту C4BE5BD1
    CRC копії C4BE5BD1
    Трек не присутній в базі Точного Видобування
    Копіювання... OK

    Трек 8

    Ім'я файлу C:\Documents and Settings\Admin\Рабочий стол\Калєкція\08. Олесь Доній та Калєкція - В синє море.wav

    Довжина проміжка 0:00:02.00

    Піковий рівень 100.0 %
    Якість трека 100.0 %
    CRC тесту 2D580228
    CRC копії 2D580228
    Трек не присутній в базі Точного Видобування
    Копіювання... OK

    Трек 9

    Ім'я файлу C:\Documents and Settings\Admin\Рабочий стол\Калєкція\09. Олесь Доній та Калєкція - Гімн молодої України.wav

    Довжина проміжка 0:00:02.00

    Піковий рівень 100.0 %
    Якість трека 100.0 %
    CRC тесту 2D0E07DF
    CRC копії 2D0E07DF
    Трек не присутній в базі Точного Видобування
    Копіювання... OK

    Трек 10

    Ім'я файлу C:\Documents and Settings\Admin\Рабочий стол\Калєкція\10. Олесь Доній та Калєкція - Карусель.wav

    Довжина проміжка 0:00:02.00

    Піковий рівень 85.6 %
    Якість трека 100.0 %
    CRC тесту 96CCAEBF
    CRC копії 96CCAEBF
    Трек не присутній в базі Точного Видобування
    Копіювання... OK

    Трек 11

    Ім'я файлу C:\Documents and Settings\Admin\Рабочий стол\Калєкція\11. Олесь Доній та Калєкція - Громадянська війна.wav

    Довжина проміжка 0:00:02.00

    Піковий рівень 100.0 %
    Якість трека 100.0 %
    CRC тесту 0C141D63
    CRC копії 0C141D63
    Трек не присутній в базі Точного Видобування
    Копіювання... OK

    Жодного трека немає в базі AccurateRip

    Помилки не траплялися

    Кінець звіту

Тривалість: 00:34:16
Мова: українська
Аудіо-кодек: FLAC
Бітрейт: 812-967 кб/с
Джерело: інший торрент-трекер
Додаткова інформація:
Другий диск Калєкції - "Молода Україна Forever", є спільним проектом з Олесем Донієм. Назва альбому, записаного восени 2002-го, тотожна назві книжки Донія і, згідно задумові автора, аудіоальбом мав служити її рекламній кампанії.

Роздача містить також скани буклету.
замовити CD в Україні та в інших країнах
http://www.umka.com.ua/ukr/catalogue/lyrical-underground/kaljektsija-group-oles-donij-moloda-ukrajina-forever.html


Також на Торрент-Толоці Гуртом ви можете знайти :

Калєкція - Відчуття присутності (2001) [MP3]




Якщо Ви справді бажаєте підтримати українське - після прослуховування, якщо музика вам сподобалась, придбайте ліцензійний диск. Підтримаймо вітчизняних виконавців!


Срібний реліз (на рейтинг впливає 50% завантаженого)
 Трекер:    Зареєстрований   

Завантажити / скачати українську музику



відео для новачків



 Зареєстрований:   2010-12-27 14:59
 Розмір:   227 MB 
 Оцінка музики:   9.9/10 (Голосів: 18)
   
ssTAss 
Модератор музики


З нами з: 05.07.08
Востаннє: 07.12.16
Повідомлень: 10947

2010-12-27 23:42  
Lev написано:
Джерело: CD-ріп -> інший торрент-трекер

це як, поясніть мені?
завантажили з іншого трекера образ (флак(чи апе)+куе) і вже самі розбили на треки?
чи так стягнули (без куе) з іншого трекера? тоді CD-ріп лишнє.. пишемо просто "інший трекер"

Lev 
VIP


З нами з: 14.10.09
Востаннє: 05.12.16
Повідомлень: 1819

2010-12-28 05:58  
ssTAss написано:

це як, поясніть мені?
завантажили з іншого трекера образ (флак(чи апе)+куе) і вже самі розбили на треки?
чи так стягнули (без куе) з іншого трекера? тоді CD-ріп лишнє.. пишемо просто "інший трекер"


просто реліз перетягнуто сюди

ssTAss 
Модератор музики


З нами з: 05.07.08
Востаннє: 07.12.16
Повідомлень: 10947

2011-02-10 23:09  
cue

REM DATE 2002
REM DISCID 8908080B
REM COMMENT "ExactAudioCopy v0.99pb4"
PERFORMER "Олесь Доній та Калєкція"
TITLE "Молода Україна Forever"
FILE "01. Олесь Доній та Калєкція - Дума про слоника.wav" WAVE
TRACK 01 AUDIO
TITLE "Дума про слоника"
PERFORMER "Олесь Доній та Калєкція"
INDEX 01 00:00:00
TRACK 02 AUDIO
TITLE "Гаудеамус"
PERFORMER "Олесь Доній та Калєкція"
INDEX 00 01:11:40
FILE "02. Олесь Доній та Калєкція - Гаудеамус.wav" WAVE
INDEX 01 00:00:00
TRACK 03 AUDIO
TITLE "Будьонівський марш"
PERFORMER "Олесь Доній та Калєкція"
INDEX 00 02:44:61
FILE "03. Олесь Доній та Калєкція - Будьонівський марш.wav" WAVE
INDEX 01 00:00:00
TRACK 04 AUDIO
TITLE "Жовтень 90-го"
PERFORMER "Олесь Доній та Калєкція"
INDEX 00 02:48:57
FILE "04. Олесь Доній та Калєкція - Жовтень 90-го.wav" WAVE
INDEX 01 00:00:00
TRACK 05 AUDIO
TITLE "В небі канареєчка літає"
PERFORMER "Олесь Доній та Калєкція"
INDEX 00 02:52:22
FILE "05. Олесь Доній та Калєкція - В небі канареєчка літає.wav" WAVE
INDEX 01 00:00:00
TRACK 06 AUDIO
TITLE "Алілуйя"
PERFORMER "Олесь Доній та Калєкція"
INDEX 00 03:45:14
FILE "06. Олесь Доній та Калєкція - Алілуйя.wav" WAVE
INDEX 01 00:00:00
TRACK 07 AUDIO
TITLE "Cosa nostra"
PERFORMER "Олесь Доній та Калєкція"
INDEX 00 03:57:63
FILE "07. Олесь Доній та Калєкція - Cosa nostra.wav" WAVE
INDEX 01 00:00:00
TRACK 08 AUDIO
TITLE "В синє море"
PERFORMER "Олесь Доній та Калєкція"
INDEX 00 04:09:39
FILE "08. Олесь Доній та Калєкція - В синє море.wav" WAVE
INDEX 01 00:00:00
TRACK 09 AUDIO
TITLE "Гімн молодої України"
PERFORMER "Олесь Доній та Калєкція"
INDEX 00 03:10:27
FILE "09. Олесь Доній та Калєкція - Гімн молодої України.wav" WAVE
INDEX 01 00:00:00
TRACK 10 AUDIO
TITLE "Карусель"
PERFORMER "Олесь Доній та Калєкція"
INDEX 00 03:02:25
FILE "10. Олесь Доній та Калєкція - Карусель.wav" WAVE
INDEX 01 00:00:00
TRACK 11 AUDIO
TITLE "Громадянська війна"
PERFORMER "Олесь Доній та Калєкція"
INDEX 00 02:47:31
FILE "11. Олесь Доній та Калєкція - Громадянська війна.wav" WAVE
INDEX 01 00:00:00
flac.cue

REM GENRE Rock
REM DATE 2002
REM DISCID 8908080B
REM COMMENT ExactAudioCopy v0.99pb4
PERFORMER "Олесь Доній та Калєкція"
TITLE "Молода Україна Forever"
FILE "01. Олесь Доній та Калєкція - Дума про слоника.flac" WAVE
TRACK 01 AUDIO
TITLE "Дума про слоника"
INDEX 01 00:00:00
FILE "02. Олесь Доній та Калєкція - Гаудеамус.flac" WAVE
TRACK 02 AUDIO
TITLE "Гаудеамус"
INDEX 01 00:00:00
FILE "03. Олесь Доній та Калєкція - Будьонівський марш.flac" WAVE
TRACK 03 AUDIO
TITLE "Будьонівський марш"
INDEX 01 00:00:00
FILE "04. Олесь Доній та Калєкція - Жовтень 90-го.flac" WAVE
TRACK 04 AUDIO
TITLE "Жовтень 90-го"
INDEX 01 00:00:00
FILE "05. Олесь Доній та Калєкція - В небі канареєчка літає.flac" WAVE
TRACK 05 AUDIO
TITLE "В небі канареєчка літає"
INDEX 01 00:00:00
FILE "06. Олесь Доній та Калєкція - Алілуйя.flac" WAVE
TRACK 06 AUDIO
TITLE "Алілуйя"
INDEX 01 00:00:00
FILE "07. Олесь Доній та Калєкція - Cosa nostra.flac" WAVE
TRACK 07 AUDIO
TITLE "Cosa nostra"
INDEX 01 00:00:00
FILE "08. Олесь Доній та Калєкція - В синє море.flac" WAVE
TRACK 08 AUDIO
TITLE "В синє море"
INDEX 01 00:00:00
FILE "09. Олесь Доній та Калєкція - Гімн молодої України.flac" WAVE
TRACK 09 AUDIO
TITLE "Гімн молодої України"
INDEX 01 00:00:00
FILE "10. Олесь Доній та Калєкція - Карусель.flac" WAVE
TRACK 10 AUDIO
TITLE "Карусель"
INDEX 01 00:00:00
FILE "11. Олесь Доній та Калєкція - Громадянська війна.flac" WAVE
TRACK 11 AUDIO
TITLE "Громадянська війна"
INDEX 01 00:00:00

fv007 
VIP


З нами з: 01.01.10
Востаннє: 07.12.16
Повідомлень: 449

2012-12-16 09:44  
Lev написано:
(хто знає точний склад, в якому було записано альбом, відпишіться)
Склад виконавців в якому записувався альбом:
Олесь Доній – спів
Гурт “Калєкція”:
Генадій "Професор" М'ясоедов – гітара, беквокал
Сергій "Етзигейтс" Балалаєв – барабани
Ярослав "Ярко" Рудницький – бас, беквокал
Олексій "LEXX” Єськов – баян, беквокал
Персонально запрошені:
Євген Кузьмов – саксафон
Євген Ципак – труба
Денис Клименко – тромбон
Василь Пасичинський – скрипка
Катерина Ляшенко – бандура
обкладинки
Lev написано:
Видавець: OSTANNЯ БАРИКАДА

потрібно уточнити, видавцем є ДП "Атлантік"

Lev 
VIP


З нами з: 14.10.09
Востаннє: 05.12.16
Повідомлень: 1819

2012-12-16 13:31  
fv007

дякую за інфу, виправлено.

Ваш часовий пояс: GMT + 2 Години

Нова тема   Відповісти