Завантажити та скачати торренти українською


Бригада М / G-Force (2009) 1080p Ukr/Eng | Sub-Ukr/Eng

Нові коментарі

Нова тема   Відповісти
Автор Повідомлення
Kuzmenko 
Відео Гуртом - команда HD
Відео Гуртом - команда HD


З нами з: 02.02.10
Востаннє: 03.12.16
Повідомлень: 144

2010-12-26 17:31  
Бригада М / G-Force (2009) 1080p Ukr/Eng | Sub-Ukr/Eng



Жанр: екшн, пригодницький, сімейний, фентезі
Країна: США



Кіностудія / кінокомпанія: Jerry Bruckheimer Films, Walt Disney Pictures, Whamaphram Productions; мейджор - Buena Vista Sony Pictures Releasing (BVSPR)
Режисер: Хоуйт Єтмен
Актори: Білл Наї, Віл Арнетт, Зак Галіфіанакіс, Келлі Ґарнер, Тайлер Патрік Джонс, Пайпер МакКензі Харріс

Сюжет:
Перший фільм у форматі 3D від відомого продюсера Джері Брукгаймера! Технічний прогрес досяг такого рівня, що тепер у ФБР для виконання спецзавдань вчені підготували групу морських свинок. Команда професіоналів, озброєна за останнім словом науки і техніки, може проникати у недоступні людям місця та виконувати, здавалося б, неможливі місії. Тепер усі матимуть можливість переконатися, що навіть домашні тваринки здатні на порятунок світу!


Тривалість: 01:28:16
Якість:
Відео: 1080p
кодек:
розмір кадру: 1920 х 800
бітрейт: 11.4 Mб/с

Аудіо # 1:
мова: українська
переклад: професійний дубльований
кодек: 5.1
бітрейт: 640 кб/с

Аудіо # 2:
мова: англійська
переклад: оригінал
кодек:
бітрейт: 1510 кб/с

Переклад і озвучення виконано:


Субтитри:
мова: українська
тип: програмні (м'які)

Субтитри:
мова: англійська
тип: програмні (м'які)
Скріншоти

MediaInfo

General
Complete name : H:\Downloads\Релізи\[Hurtom.com]\G-Force (2009) 1080p Ukr,Eng.Sub-Ukr,Eng[Hurtom].mkv
Format : Matroska
File size : 8.36 GiB
Duration : 1h 28mn
Overall bit rate : 13.6 Mbps
Movie name : G-Force (2009) 1080p Ukr,Eng.Sub-Ukr,Eng[Hurtom]
Encoded date : UTC 2011-01-06 23:29:02
Writing application : mkvmerge v4.3.0 ('Escape from the Island') збірка від Sep 5 2010 10:30:51
Writing library : libebml v1.0.0 + libmatroska v1.0.0

Video
ID : 1
Format : AVC
Format/Info : Advanced Video Codec
Format profile : [email protected]
Format settings, CABAC : Yes
Format settings, ReFrames : 5 frames
Muxing mode : Header stripping
Codec ID : V_MPEG4/ISO/AVC
Duration : 1h 28mn
Bit rate : 11.4 Mbps
Width : 1 920 pixels
Height : 800 pixels
Display aspect ratio : 2.40:1
Frame rate : 23.976 fps
Color space : YUV
Chroma subsampling : 4:2:0
Bit depth : 8 bits
Scan type : Progressive
Bits/(Pixel*Frame) : 0.310
Stream size : 6.87 GiB (82%)
Title : G-Force (2009) 1080p Ukr,Eng.Sub-Ukr,Eng[Hurtom]
Writing library : core 79 r1342 e8501ef
Encoding settings : cabac=1 / ref=5 / deblock=1:0:0 / analyse=0x3:0x133 / me=umh / subme=7 / psy=1 / psy_rd=1.0:0.0 / mixed_ref=1 / me_range=16 / chroma_me=1 / trellis=1 / 8x8dct=1 / cqm=0 / deadzone=21,11 / chroma_qp_offset=-2 / threads=3 / nr=0 / decimate=1 / mbaff=0 / constrained_intra=0 / bframes=3 / b_pyramid=2 / b_adapt=2 / b_bias=0 / direct=3 / wpredb=1 / wpredp=2 / keyint=250 / keyint_min=25 / scenecut=40 / rc=2pass / mbtree=0 / bitrate=11398 / ratetol=1.0 / qcomp=0.60 / qpmin=10 / qpmax=51 / qpstep=4 / cplxblur=20.0 / qblur=0.5 / ip_ratio=1.40 / pb_ratio=1.30 / aq=1:1.00
Language : English

Audio #1
ID : 2
Format : AC-3
Format/Info : Audio Coding 3
Mode extension : CM (complete main)
Muxing mode : Header stripping
Codec ID : A_AC3
Duration : 1h 28mn
Bit rate mode : Constant
Bit rate : 640 Kbps
Channel(s) : 6 channels
Channel positions : Front: L C R, Side: L R, LFE
Sampling rate : 48.0 KHz
Bit depth : 16 bits
Stream size : 404 MiB (5%)
Title : 5.1 @ 640bps Українська - дубляж

Audio #2
ID : 3
Format :
Format/Info : Digital Theater Systems
Muxing mode : Header stripping
Codec ID : A_DTS
Duration : 1h 28mn
Bit rate mode : Constant
Bit rate : 1 510 Kbps
Channel(s) : 6 channels
Channel positions : Front: L C R, Side: L R, LFE
Sampling rate : 48.0 KHz
Bit depth : 24 bits
Stream size : 953 MiB (11%)
Title : 5.1 @ 1510 kbps Англійська - оригінал
Language : English

Text #1
ID : 4
Format : PGS
Muxing mode : zlib
Codec ID : S_HDMV/PGS
Codec ID/Info : The same subtitle format used on BDs/HD-DVDs
Language : Ukrainian

Text #2
ID : 5
Format : UTF-8
Codec ID : S_TEXT/UTF8
Codec ID/Info : UTF-8 Plain Text
Language : English
Джерело: &
Особиста оцінка: 10 - без зайвих вагань рекомендую всім!


 Трекер:    Зареєстрований   

Завантажити / скачати фільм українською



відео для новачків



 Зареєстрований:   2011-01-07 11:51
 Розмір:   8.36 GB 
 Оцінка фільму:   9.6/10 (Голосів: 8)
   
Інші релізи
   Бригада «М» / G-Force (2009) 720p Ukr/Eng | Sub Ukr/Eng Віктор  1 / 0   3.45 GB   2010-06-02 21:53 
   Бригада М / G-Force (2009) AVC Z_E_R_O  0 / 0   2.18 GB   2010-02-07 13:24 
   Бригада М / G-Force (2009) | Ліцензія antik_2008  6 / 0   1.37 GB   2009-12-08 19:47 
Kuzmenko 
Відео Гуртом - команда HD
Відео Гуртом - команда HD


З нами з: 02.02.10
Востаннє: 03.12.16
Повідомлень: 144

2010-12-26 17:33  
Файл залию завтра..
DejaVu 
Відео Гуртом - підтримка та поширення
Відео Гуртом - підтримка та поширення


З нами з: 20.12.10
Востаннє: 03.12.16
Повідомлень: 754

2011-01-02 14:22  
То перенесіть тему в анонс...
Kuzmenko 
Відео Гуртом - команда HD
Відео Гуртом - команда HD


З нами з: 02.02.10
Востаннє: 03.12.16
Повідомлень: 144

2011-01-02 19:21  
я готую квадрологію міцного горішка ренюксами.... буде за кілька днів зразу залито всі релізи що обіцяв..... ще залишилось докачати лише 120 Гб і повирізати непотрібне...
Kuzmenko 
Відео Гуртом - команда HD
Відео Гуртом - команда HD


З нами з: 02.02.10
Востаннє: 03.12.16
Повідомлень: 144

2011-01-07 11:52  
Залив і поставив на роздачу...
Flashbag 
Свій


З нами з: 23.07.10
Востаннє: 02.12.16
Повідомлень: 58

2011-02-22 00:03  
народ, дайте швидкості пліз))))
Kuzmenko 
Відео Гуртом - команда HD
Відео Гуртом - команда HD


З нами з: 02.02.10
Востаннє: 03.12.16
Повідомлень: 144

2011-02-22 00:11  
Встану через 15 хв на роздачу.....
sergiyko 
Забанено
Забанено


З нами з: 17.06.08
Востаннє: 13.10.13
Повідомлень: 259

2011-02-24 01:17  
Дякую, класний мульт, дітям дуже подобається.
STIV UA 
Новенький


З нами з: 02.07.10
Востаннє: 27.06.15
Повідомлень: 6

2011-03-05 09:17  
Люди, дайте хто-небудь, будь-ласка, докачати. Агов, сі-іди, верніться!
Flashbag 
Свій


З нами з: 23.07.10
Востаннє: 02.12.16
Повідомлень: 58

2011-03-06 15:58  
В мене таке ж саме: вже другий тиждень качаю...(((
bot 
робот


З нами з: 30.09.07
Востаннє: 26.05.05
Повідомлень: 15998

2012-01-13 11:37  
Тему перенесено з Мультфільми в HD до форуму Фільми в HD

Причина перенесення: бо фільм)
w2958l

Ваш часовий пояс: GMT + 2 Години

Нова тема   Відповісти