Завантажити та скачати торренти українською


Солт [Театральна версія] / Salt [Theatrical Cut] (2010) Remux 1080p Ukr/Eng | Sub-Ukr/Eng

Нові коментарі

Нова тема   Відповісти
Автор Повідомлення
Kuzmenko 
Відео Гуртом - команда HD
Відео Гуртом - команда HD


З нами з: 02.02.10
Востаннє: 03.12.16
Повідомлень: 144

2010-12-26 01:14  
Солт [Театральна версія] / Salt [Theatrical Cut] (2010) Remux 1080p Ukr/Eng | Sub-Ukr/Eng



Жанр: бойовик, трилер
Країна: США



Кіностудія / кінокомпанія: Columbia Pictures
Режисер: Філліп Нойс
Актори: Лів Шрайбер, Анджеліна Джолі, Чіветел Еджіофор, Яра Шахиді, Гай Чарльз, Зої Лістер Джонс, Віктор Слезак, Даніель Ольбрихський, Кессіді Хінкль, Джеймс Шрем

Сюжет:
Евелін Солт - співробітниця ЦРУ. Їй дивом вдається уникнути в'язниці: власне агентство висуває проти неї необгрунтовані звинувачення в тому, що вона працює на російську розвідку. Тепер Солт необхідно відновити своє добре ім'я.


Тривалість: 01:39:59
Якість: Remux 1080p
Відео:
кодек:
розмір кадру: 1920 х 1080
бітрейт: 25.8 Мб/с

Аудіо # 1:
мова: українська
переклад: професійний дубльований
кодек: 5.1
бітрейт: 448 кб/с

Аудіо # 2:
мова: англійська
переклад: оригінал
кодек: -HD MA
бітрейт: ~ 2980 кб/с

Аудіо # 3:
мова: англійська
переклад: коментарі
кодек: 2.0
бітрейт: 192 кб/с

Переклад і озвучення виконано:


Субтитри:
мова: українська
тип: програмні (м'які)

Субтитри:
мова: англійська
тип: програмні (м'які)
Скріншоти

MediaInfo

General
ID : 1
Complete name : H:\Downloads\Релізи\[Hurtom.com]\Salt [Theatrical Cut] (2010) Remux 1080p Ukr,Eng. Sub-Ukr,Eng[Hurtom].m2ts
Format : BDAV
Format/Info : Blu-ray Video
File size : 18.0 GiB
Duration : 1h 40mn
Overall bit rate : 25.8 Mbps
Maximum Overall bit rate : 35.5 Mbps

Video
ID : 4113 (0x1011)
Menu ID : 1 (0x1)
Format : AVC
Format/Info : Advanced Video Codec
Format profile : [email protected]
Format settings, CABAC : Yes
Format settings, ReFrames : 2 frames
Codec ID : 27
Duration : 1h 39mn
Bit rate mode : Variable
Width : 1 920 pixels
Height : 1 080 pixels
Display aspect ratio : 16:9
Frame rate : 23.976 fps
Color space : YUV
Chroma subsampling : 4:2:0
Bit depth : 8 bits
Scan type : Progressive

Audio #1
ID : 4352 (0x1100)
Menu ID : 1 (0x1)
Format : AC-3
Format/Info : Audio Coding 3
Mode extension : CM (complete main)
Codec ID : 129
Duration : 1h 40mn
Bit rate mode : Constant
Bit rate : 448 Kbps
Channel(s) : 6 channels
Channel positions : Front: L C R, Side: L R, LFE
Sampling rate : 48.0 KHz
Bit depth : 16 bits
Stream size : 320 MiB (2%)
Language : Ukrainian

Audio #2
ID : 4353 (0x1101)
Menu ID : 1 (0x1)
Format :
Format/Info : Digital Theater Systems
Format profile : MA
Muxing mode : Stream extension
Codec ID : 134
Duration : 1h 39mn
Bit rate mode : Variable
Channel(s) : 6 channels
Channel positions : Front: L C R, Side: L R, LFE
Sampling rate : 48.0 KHz
Bit depth : 24 bits
Language : English

Audio #3
ID : 4354 (0x1102)
Menu ID : 1 (0x1)
Format : AC-3
Format/Info : Audio Coding 3
Format profile : Dolby Digital
Mode extension : CM (complete main)
Codec ID : 129
Duration : 1h 40mn
Bit rate mode : Constant
Bit rate : 192 Kbps
Channel(s) : 2 channels
Channel positions : Front: L R
Sampling rate : 48.0 KHz
Bit depth : 16 bits
Stream size : 137 MiB (1%)
Language : English

Text #1
ID : 4608 (0x1200)
Menu ID : 1 (0x1)
Format : PGS
Codec ID : 144
Language : Ukrainian

Text #2
ID : 4609 (0x1201)
Menu ID : 1 (0x1)
Format : PGS
Codec ID : 144
Language : English
Джерело: &
Особиста оцінка: 10 - без зайвих вагань рекомендую всім!


Золотий реліз (завантажене не впливає на рейтинг)
 Трекер:    Зареєстрований   

Завантажити / скачати фільм українською



відео для новачків



 Зареєстрований:   2010-12-26 01:14
 Розмір:   18 GB 
 Оцінка фільму:   9/10 (Голосів: 7)
   
[email protected] 
Свій


З нами з: 10.08.10
Востаннє: 03.12.16
Повідомлень: 51

2010-12-26 14:45  
А режисерська версія буде?
Kuzmenko 
Відео Гуртом - команда HD
Відео Гуртом - команда HD


З нами з: 02.02.10
Востаннє: 03.12.16
Повідомлень: 144

2010-12-26 23:25  
буде в середу....
[email protected] 
Свій


З нами з: 10.08.10
Востаннє: 03.12.16
Повідомлень: 51

2010-12-27 00:51  
о це діло, дякую)
Ваш часовий пояс: GMT + 2 Години

Нова тема   Відповісти