Завантажити та скачати торренти українською


Діти Шпигунів: Трилогія / Spy Kids: Trilogy (2001-2003) 1080p Ukr,Eng | Sub-Eng

Нові коментарі

Нова тема   Відповісти
Сторінка:  1, 2  наступна
Автор Повідомлення
Kuzmenko 
Відео Гуртом - команда HD
Відео Гуртом - команда HD


З нами з: 02.02.10
Востаннє: 03.12.16
Повідомлень: 144

2010-12-24 20:28  
Діти Шпигунів: Трилогія / Spy Kids: Trilogy (2001-2003) 1080p Ukr,Eng | Sub-Eng



Жанр: бойовик, сімейний, комедія, пригодницький, фантастика
Країна: США

Кіностудія / кінокомпанія: Dimension Films
Режисер: Роберт Родрігез / Robert Rodriguez
Актори: Антоніо Бандерас / Antonio Banderas, Карла Гуджино / Carla Gugino, Елан Камминг / Alan Cumming, Алекса Вега / Alexa Vega, Деріл Сабара / Daryl Sabara, Тоні Шелхоу / Tony Shalhoub, Роберт Патрік / Robert Patrick, Майк Джадж / Mike Judge, Сільвестром Сталлоне / Sylvester Stallone
Діти Шпигунів / Spy Kids (2001) 1080p Ukr,Eng | Sub-Eng
Діти Шпигунів / Spy Kids (2001) 1080p Ukr,Eng | Sub-Eng



Жанр: бойовик, сімейний, комедія, пригодницький, фантастика
Країна: США



Кіностудія / кінокомпанія: Dimension Films
Режисер: Роберт Родрігез / Robert Rodriguez
Актори: Антоніо Бандерас / Antonio Banderas, Карла Гуджино / Carla Gugino, Елан Камминг / Alan Cumming, Алекса Вега / Alexa Vega, Деріл Сабара / Daryl Sabara, Тоні Шелхоуб / Tony Shalhoub, Роберт Патрік / Robert Patrick

Сюжет:
Два найкрутіших шпигуна у світі: Грегоріо Кортес і Інгрід, мали одне й те саме секретне завдання - знищити один одного. Але особиста зустріч не принесла їм нічого гарного: вони одружилися і зав'язали зі своїм ремеслом ... Через кілька років зникнення сімох спецагентів змушує їх знову повернутися в гру. Причиною послужило те, що їхні колишні колеги, найкрутіші професіонали, почали зникати один за одним.
Кортеси знов потрібні агентству, яке хоче, щоб вони розкрили секрети якогось Пальця, що формує армію з дітей-роботів. Участь зникнення осягає і подружжя Кортесів, їх викрадає підступний лиходій. Тепер доля полонених залежить від того, чи зможуть їхні діти правильно розпорядитися всіма новітніми надсекретними шпигунськими штучками з арсеналу легендарних батьків.


Тривалість: 01:27:53
Якість:
Відео:
кодек: V_MPEG4/ISO/AVC ()
розмір кадру: 1920 х 1080
бітрейт: 11.5 Мб/с

Аудіо # 1:
мова: українська
переклад: багатоголосий закадровий
кодек: 5.1
бітрейт: 448 кб/с

Аудіо # 2:
мова: англійська
переклад: оригінал
кодек:
бітрейт: 1510 кб/с

Субтитри:
мова: англійська
тип: програмні (м'які)

Переклад виконано і озвучено:

Звукову доріжку буде замінено на кращу коли фільм покажуть по телебаченні...
Скріншоти






MediaInfo

General
Complete name : H:\Downloads\Релізи\[Hurtom.com]\Spy Kids.Trilogy (2001,2002,2003) [Ukr.Novy_5.1] 1080p Ukr,Eng.Sub-Eng[Hurtom]\Spy Kids (2001) 1080p Ukr,Eng.Sub-Eng[Hurtom].mkv
Format : Matroska
File size : 8.22 GiB
Duration : 1h 27mn
Overall bit rate : 13.4 Mbps
Movie name : Spy Kids (2001) 1080p Ukr,Eng.Sub-Eng[Hurtom]
Encoded date : UTC 2010-12-24 19:28:58
Writing application : mkvmerge v4.3.0 ('Escape from the Island') збірка від Sep 5 2010 10:30:51
Writing library : libebml v1.0.0 + libmatroska v1.0.0

Video
ID : 1
Format : AVC
Format/Info : Advanced Video Codec
Format profile : [email protected]
Format settings, CABAC : Yes
Format settings, ReFrames : 4 frames
Muxing mode : Header stripping
Codec ID : V_MPEG4/ISO/AVC
Duration : 1h 27mn
Bit rate : 11.5 Mbps
Width : 1 920 pixels
Height : 1 080 pixels
Display aspect ratio : 16:9
Frame rate : 23.976 fps
Color space : YUV
Chroma subsampling : 4:2:0
Bit depth : 8 bits
Scan type : Progressive
Bits/(Pixel*Frame) : 0.231
Stream size : 6.85 GiB (83%)
Title : Spy Kids (2001) 1080p Ukr,Eng.Sub-Eng[Hurtom]
Writing library : core 79 r1352 d487de4
Encoding settings : cabac=1 / ref=4 / deblock=1:0:0 / analyse=0x3:0x133 / me=umh / subme=8 / psy=1 / psy_rd=1.0:0.0 / mixed_ref=1 / me_range=16 / chroma_me=1 / trellis=1 / 8x8dct=1 / cqm=0 / deadzone=21,11 / chroma_qp_offset=-2 / threads=6 / nr=0 / decimate=1 / mbaff=0 / constrained_intra=0 / bframes=3 / b_pyramid=0 / b_adapt=1 / b_bias=0 / direct=1 / wpredb=1 / wpredp=2 / keyint=250 / keyint_min=25 / scenecut=40 / rc=2pass / mbtree=0 / bitrate=11461 / ratetol=1.0 / qcomp=0.60 / qpmin=10 / qpmax=51 / qpstep=4 / cplxblur=20.0 / qblur=0.5 / ip_ratio=1.40 / pb_ratio=1.30 / aq=1:1.00
Language : English

Audio #1
ID : 2
Format : AC-3
Format/Info : Audio Coding 3
Mode extension : CM (complete main)
Muxing mode : Header stripping
Codec ID : A_AC3
Duration : 1h 27mn
Bit rate mode : Constant
Bit rate : 448 Kbps
Channel(s) : 6 channels
Channel positions : Front: L C R, Side: L R, LFE
Sampling rate : 48.0 KHz
Bit depth : 16 bits
Stream size : 282 MiB (3%)
Title : 5.1 @ 448kbps Українська - Новий канал (багатоголосий закадровий)
Language : Ukrainian

Audio #2
ID : 3
Format :
Format/Info : Digital Theater Systems
Muxing mode : Header stripping
Codec ID : A_DTS
Duration : 1h 27mn
Bit rate mode : Constant
Bit rate : 1 510 Kbps
Channel(s) : 6 channels
Channel positions : Front: L C R, Side: L R, LFE
Sampling rate : 48.0 KHz
Bit depth : 24 bits
Stream size : 949 MiB (11%)
Title : @ 1510 Kbps Англійська - оригінал
Language : English

Text
ID : 4
Format : UTF-8
Codec ID : S_TEXT/UTF8
Codec ID/Info : UTF-8 Plain Text
Language : English
Діти Шпигунів 2: Острів загублених мрій / Spy Kids 2: Island of Lost Dreams (2002) 1080p Ukr,Eng | Sub-Eng
Діти Шпигунів 2: Острів загублених мрій / Spy Kids 2: Island of Lost Dreams (2002)



Жанр: бойовик, сімейний, комедія, пригодницький, фантастика
Країна: США



Режисер: Роберт Родрігез / Robert Rodriguez
Актори: Антоніо Бандерас / Antonio Banderas, Карла Гуджино / Carla Gugino, Елан Камминг / Alan Cumming, Алекса Вега / Alexa Vega, Деріл Сабара / Daryl Sabara, Тоні Шелхоуб / Tony Shalhoub, Роберт Патрік / Robert Patrick

Сюжет:
Джуні і його старша сестра Кармен ще попередніми своїми пригодами довели, що вони не тільки можуть допомагати своїм батькам-шпигунам, але й можуть самостійно справлятися із справами, гідними справжніх шпигунів. Цього разу не їхнім батькам, Грегоріо і Інгрід, а самим Джуні і Кармен доведеться виконати нове завдання.
Вони відправляються на таємничий острів, де один вчений-винахідник створює надприродні істоти. Джуни і Кармен повинні зупинити божевільного лиходія, однак у цьому завданні у них є конкуренти - брат і сестра Гару і Герті. У цих двох конкуруючих шпигунських дуетів одна мета - знайти і знищити пристрій, що може завдати непоправної шкоди всьому світу.
Це завдання виявляється занадто складним для юних шпигунів, яким на допомогу приходять їхні батьки і дідусь з бабусею.


Тривалість: 01:40:01
Якість:
Відео:
кодек: V_MPEG4/ISO/AVC ()
розмір кадру: 1920 х 1080
бітрейт:9 862 Кб/с

Аудіо # 1:
мова: українська
переклад: багатоголосий закадровий
кодек: 5.1
бітрейт: 448 кб/с

Аудіо # 2:
мова: англійська
переклад: оригінал
кодек:
бітрейт: 1510 кб/с

Субтитри:
мова: англійська
тип: програмні (м'які)

Переклад виконано і озвучено:
Скріншоти

MediaInfo

General
Complete name : H:\Downloads\Релізи\[Hurtom.com]\Spy Kids.Trilogy (2001,2002,2003) [Ukr.Novy_5.1] 1080p Ukr,Eng.Sub-Eng[Hurtom]\Spy Kids 2 (2002) 1080p Ukr,Eng.Sub-Eng[Hurtom].mkv
Format : Matroska
File size : 8.25 GiB
Duration : 1h 40mn
Overall bit rate : 11.8 Mbps
Movie name : Spy Kids 2 (2002) 1080p Ukr,Eng.Sub-Eng[Hurtom]
Encoded date : UTC 2011-01-06 16:38:44
Writing application : mkvmerge v4.3.0 ('Escape from the Island') збірка від Sep 5 2010 10:30:51
Writing library : libebml v1.0.0 + libmatroska v1.0.0

Video
ID : 1
Format : AVC
Format/Info : Advanced Video Codec
Format profile : [email protected]
Format settings, CABAC : Yes
Format settings, ReFrames : 4 frames
Muxing mode : Header stripping
Codec ID : V_MPEG4/ISO/AVC
Duration : 1h 40mn
Bit rate : 9 862 Kbps
Width : 1 920 pixels
Height : 1 080 pixels
Display aspect ratio : 16:9
Frame rate : 23.976 fps
Color space : YUV
Chroma subsampling : 4:2:0
Bit depth : 8 bits
Scan type : Progressive
Bits/(Pixel*Frame) : 0.198
Stream size : 6.72 GiB (81%)
Title : Spy Kids 2 (2002) 1080p Ukr,Eng.Sub-Eng[Hurtom]
Writing library : core 79 r1352 d487de4
Encoding settings : cabac=1 / ref=4 / deblock=1:0:0 / analyse=0x3:0x133 / me=umh / subme=8 / psy=1 / psy_rd=1.0:0.0 / mixed_ref=1 / me_range=16 / chroma_me=1 / trellis=1 / 8x8dct=1 / cqm=0 / deadzone=21,11 / chroma_qp_offset=-2 / threads=6 / nr=0 / decimate=1 / mbaff=0 / constrained_intra=0 / bframes=3 / b_pyramid=0 / b_adapt=1 / b_bias=0 / direct=1 / wpredb=1 / wpredp=2 / keyint=250 / keyint_min=25 / scenecut=40 / rc=2pass / mbtree=0 / bitrate=9862 / ratetol=1.0 / qcomp=0.60 / qpmin=10 / qpmax=51 / qpstep=4 / cplxblur=20.0 / qblur=0.5 / ip_ratio=1.40 / pb_ratio=1.30 / aq=1:1.00
Language : English

Audio #1
ID : 2
Format : AC-3
Format/Info : Audio Coding 3
Mode extension : CM (complete main)
Muxing mode : Header stripping
Codec ID : A_AC3
Duration : 1h 40mn
Bit rate mode : Constant
Bit rate : 448 Kbps
Channel(s) : 6 channels
Channel positions : Front: L C R, Side: L R, LFE
Sampling rate : 48.0 KHz
Bit depth : 16 bits
Stream size : 320 MiB (4%)
Title : 5.1 @ 448kbps Українська - Новий канал (багатоголосий закадровий)
Language : Ukrainian

Audio #2
ID : 3
Format :
Format/Info : Digital Theater Systems
Muxing mode : Header stripping
Codec ID : A_DTS
Duration : 1h 40mn
Bit rate mode : Constant
Bit rate : 1 510 Kbps
Channel(s) : 6 channels
Channel positions : Front: L C R, Side: L R, LFE
Sampling rate : 48.0 KHz
Bit depth : 24 bits
Video delay : 100ms
Stream size : 1.05 GiB (13%)
Title : @ 1510 Kbps Англійська - оригінал
Language : English

Text
ID : 4
Format : UTF-8
Codec ID : S_TEXT/UTF8
Codec ID/Info : UTF-8 Plain Text
Language : English
Діти Шпигунів 3: Кінець Гри / Spy Kids 3: Game Over (2003) 1080p Ukr,Eng | Sub-Eng
Діти Шпигунів 3: Кінець Гри / Spy Kids 3: Game Over (2003)

алтернативний помтер від grytzz
Жанр: бойовик, сімейний, комедія, пригодницький, фантастика
Країна: США



Режисер: Роберт Родрігез / Robert Rodriguez
Актори: Антоніо Бандерас / Antonio Banderas, Карла Гуджино / Carla Gugino, Елан Камминг / Alan Cumming, Алекса Вега / Alexa Vega, Деріл Сабара / Daryl Sabara, Тоні Шелхоуб / Tony Shalhoub, Роберт Патрік / Robert Patrick, Сільвестром Сталлоне / Sylvester Stallone

Сюжет:
Шпигуни стають старшими, але і вороги - все сильнішими і витонченішими. Тепер їм належить вступити в сутичку з самим Сільвестром Сталлоне, щоб врятувати не тільки своє життя, а й цілий світ ...
Неповнолітні агенти Джуни і Кармен Кортез відправляються на виконання нового завдання. Цього разу їх чекає подорож по віртуальному світу 3-D відеогри, розробленої для того, щоб істоти, що населяють її з'явилися в реальний світ.
Дочка шпигунів Кармен попалася в мережі комп'ютерної гри, створеної зловісним Майстром Іграшок. Тепер її брат повинен врятувати сестру, а заодно і весь світ. І допомагати йому в цьому будуть його батьки!


Тривалість: 01:22:16
Якість:
Відео:
кодек: V_MPEG4/ISO/AVC ()
розмір кадру: 1920 х 1040
бітрейт: 12.3 Мб/с

Аудіо # 1:
мова: українська
переклад: багатоголосий закадровий
кодек: 5.1
бітрейт: 448 кб/с

Аудіо # 2:
мова: англійська
переклад: оригінал
кодек:
бітрейт: 1510 кб/с

Субтитри:
мова: англійська
тип: програмні (м'які)

Переклад виконано і озвучено:
Скріншоти










MediaInfo

General
Complete name : H:\Downloads\Релізи\[Hurtom.com]\Spy Kids.Trilogy (2001,2002,2003) [Ukr.Novy_5.1] 1080p Ukr,Eng.Sub-Eng[Hurtom]\Spy Kids 3 (2003) 1080p Ukr,Eng.Sub-Eng[Hurtom].mkv
Format : Matroska
File size : 8.20 GiB
Duration : 1h 22mn
Overall bit rate : 14.3 Mbps
Movie name : Spy Kids 3 (2003) 1080p Ukr,Eng.Sub-Eng[Hurtom]
Encoded date : UTC 2011-01-06 17:05:12
Writing application : mkvmerge v4.3.0 ('Escape from the Island') збірка від Sep 5 2010 10:30:51
Writing library : libebml v1.0.0 + libmatroska v1.0.0

Video
ID : 1
Format : AVC
Format/Info : Advanced Video Codec
Format profile : [email protected]
Format settings, CABAC : Yes
Format settings, ReFrames : 4 frames
Muxing mode : Header stripping
Codec ID : V_MPEG4/ISO/AVC
Duration : 1h 22mn
Bit rate : 12.3 Mbps
Width : 1 920 pixels
Height : 1 040 pixels
Display aspect ratio : 16:9
Frame rate : 23.976 fps
Color space : YUV
Chroma subsampling : 4:2:0
Bit depth : 8 bits
Scan type : Progressive
Bits/(Pixel*Frame) : 0.257
Stream size : 6.91 GiB (84%)
Title : Spy Kids 3 (2003) 1080p Ukr,Eng.Sub-Eng[Hurtom]
Writing library : core 78 r1309M 4d77de8
Encoding settings : cabac=1 / ref=4 / deblock=1:0:0 / analyse=0x3:0x133 / me=umh / subme=8 / psy=1 / psy_rd=1.0:0.0 / mixed_ref=1 / me_range=16 / chroma_me=1 / trellis=1 / 8x8dct=1 / cqm=0 / deadzone=21,11 / chroma_qp_offset=-2 / threads=6 / nr=0 / decimate=1 / mbaff=0 / constrained_intra=0 / bframes=3 / b_pyramid=0 / b_adapt=1 / b_bias=0 / direct=1 / wpredb=1 / keyint=250 / keyint_min=25 / scenecut=40 / rc=2pass / mbtree=0 / bitrate=12315 / ratetol=1.0 / qcomp=0.60 / qpmin=10 / qpmax=51 / qpstep=4 / cplxblur=20.0 / qblur=0.5 / ip_ratio=1.40 / pb_ratio=1.30 / aq=1:1.00
Language : English

Audio #1
ID : 2
Format : AC-3
Format/Info : Audio Coding 3
Mode extension : CM (complete main)
Muxing mode : Header stripping
Codec ID : A_AC3
Duration : 1h 22mn
Bit rate mode : Constant
Bit rate : 448 Kbps
Channel(s) : 6 channels
Channel positions : Front: L C R, Side: L R, LFE
Sampling rate : 48.0 KHz
Bit depth : 16 bits
Stream size : 264 MiB (3%)
Title : 5.1 @ 448kbps Українська - Новий канал (багатоголосий закадровий)

Audio #2
ID : 3
Format :
Format/Info : Digital Theater Systems
Muxing mode : Header stripping
Codec ID : A_DTS
Duration : 1h 22mn
Bit rate mode : Constant
Bit rate : 1 510 Kbps
Channel(s) : 6 channels
Channel positions : Front: L C R, Side: L R, LFE
Sampling rate : 48.0 KHz
Bit depth : 24 bits
Stream size : 889 MiB (11%)
Title : @ 1510 Kbps Англійська - оригінал
Language : English

Text
ID : 4
Format : UTF-8
Codec ID : S_TEXT/UTF8
Codec ID/Info : UTF-8 Plain Text
Language : English
Хочу виразити подяку наступним людям:
Hulk1987 за доріжку до першого фільму
Merdiff за доріжку до другого фільму
ua2004 та Бодя за доріжку до третього фільму
thefir за українізовані постери до першого та другого фільму а також за dvd-обкладинку
grytzz та Leib за український постер до третього фільму

Подяка abodnya за надану інформацію...


Звукові доріжки написано:

Вантажимо доріжки звідси - http://toloka.to/dorizhky.php
Імена файлів:
Spy Kids.(2001).01h27m40s.[Novy.Kanal][5.1-448].23,976fps..[Hurtom-abodnya]-1.
Spy Kids.2.(2002).01h37m43s.[Novy.Kanal][5.1-448].23,976fps..[Hurtom-abodnya]-1.
Spy Kids.3.(2003).01h22m16s.[Novy.Kanal][5.1-448].23,976fps..[Hurtom-abodnya]-1.



Джерело:
Особиста оцінка: 10 - без зайвих вагань рекомендую всім![img][/img]


Срібний реліз (на рейтинг впливає 50% завантаженого)
 Трекер:    Зареєстрований   

Завантажити / скачати фільм українською



відео для новачків



 Зареєстрований:   2011-01-07 00:47
 Розмір:   24.67 GB 
 Оцінка фільму:   9.2/10 (Голосів: 11)
   
Kuzmenko 
Відео Гуртом - команда HD
Відео Гуртом - команда HD


З нами з: 02.02.10
Востаннє: 03.12.16
Повідомлень: 144

2010-12-24 20:30  
Прошу нічого тут не писати.. реліз в процесі підготовки... за 1-2 дні дороблю і залию все....

P.S: Модератори - прошу видалити всі повідомлення після цього....

abodnya 
Відео Гуртом - фільмокрай
Відео Гуртом - фільмокрай


З нами з: 02.11.08
Востаннє: 07.12.16
Повідомлень: 5961

2010-12-24 20:34  
Сподіваюсь, що англ. доріжка таки буде.
А чому не в розділі "анонси"?

bot 
робот


З нами з: 30.09.07
Востаннє: 26.05.05
Повідомлень: 16050

2010-12-24 21:00  
Тему перенесено з Художні фільми в HD до форуму Анонси релізів від Відео Гуртом


Kuzmenko

Kuzmenko 
Відео Гуртом - команда HD
Відео Гуртом - команда HD


З нами з: 02.02.10
Востаннє: 03.12.16
Повідомлень: 144

2010-12-24 21:02  
я до всіх релізів добавляю оригінальну доріжку 1510 + Кб/с

докачую другий і третій фільм.....

Kuzmenko 
Відео Гуртом - команда HD
Відео Гуртом - команда HD


З нами з: 02.02.10
Востаннє: 03.12.16
Повідомлень: 144

2010-12-25 21:07  
Якщо я залию фільм з тим звуком, що буд записаний - я небуду себе проважати....

Покажуть фільми по телевізорі - запишемо заново(якісно) і залию зразу в нормальній якості

abodnya 
Відео Гуртом - фільмокрай
Відео Гуртом - фільмокрай


З нами з: 02.11.08
Востаннє: 07.12.16
Повідомлень: 5961

2010-12-25 22:38  
Kuzmenko написано:
Подяка abodnya за надану інформацію...

і за зведення всіх доріжок

Додано через 1 хвилину 4 секунди:

Kuzmenko написано:
Якщо я залию фільм з тим звуком, що буд записаний - я небуду себе проважати....

там тільки в першій такий галімий звук, в решті частин більш-менш.
Kuzmenko написано:
Покажуть фільми по телевізорі - запишемо заново(якісно) і залию зразу в нормальній якості

от коли покажуть, тоді і будеш казати. А покажуть хз коли

DejaVu 
Відео Гуртом - підтримка та поширення
Відео Гуртом - підтримка та поширення


З нами з: 20.12.10
Востаннє: 08.12.16
Повідомлень: 754

2010-12-26 00:35  
А буде в 720р якості?

abodnya написано:

Kuzmenko написано:Покажуть фільми по телевізорі - запишемо заново(якісно) і залию зразу в нормальній якості

от коли покажуть, тоді і будеш казати. А покажуть хз коли

Поки вони ще на думають, а приблизно десь на весні, може й раніше. Це по новому.

Kuzmenko 
Відео Гуртом - команда HD
Відео Гуртом - команда HD


З нами з: 02.02.10
Востаннє: 03.12.16
Повідомлень: 144

2010-12-26 01:23  
Sherlock249

буде 1080 ріп, 1080 ренюкс, 720 ріп

одночано...

nyra 
Новенький


З нами з: 24.09.10
Востаннє: 17.03.11
Повідомлень: 3

2010-12-28 08:58  
Kuzmenko - коли чекати реліз, і яка його буде "вага".
Хочу подивитись в сімейному колі з сином.
Чекаємо.

Kuzmenko 
Відео Гуртом - команда HD
Відео Гуртом - команда HD


З нами з: 02.02.10
Востаннє: 03.12.16
Повідомлень: 144

2010-12-28 22:24  
я залию всі закачані релізи 30 і 31 числа... залию з наявним звуком - при показі по телевізору запишу якісно і доаблю доріжку...
Марчело 
Частий відвідувач


З нами з: 03.06.10
Востаннє: 20.09.15
Повідомлень: 37

2010-12-29 16:14  
Рейтинг ІМДБ виправіть...не відповідає дійсному Happy
nyra 
Новенький


З нами з: 24.09.10
Востаннє: 17.03.11
Повідомлень: 3

2011-01-01 21:05  
Усіх з Новим роком.
Піддайте трохи швидкості ......

muestro 
Відео Гуртом - фільмокрай
Відео Гуртом - фільмокрай


З нами з: 28.10.09
Востаннє: 05.12.16
Повідомлень: 864

2011-01-01 21:21  
я під столом
carrera_zola 
Поважний учасник


З нами з: 31.10.10
Востаннє: 31.05.15
Повідомлень: 160

2011-01-01 21:52  
Цитата:
Усіх з Новим роком.
Піддайте трохи швидкості ......


Kuzmenko 
Відео Гуртом - команда HD
Відео Гуртом - команда HD


З нами з: 02.02.10
Востаннє: 03.12.16
Повідомлень: 144

2011-01-02 19:34  
я готую квадрологію міцного горішка ренюксами.... буде за кілька днів зразу залито всі релізи що обіцяв..... ще залишилось докачати лише 120 Гб і повирізати непотрібне...

залию зразу релізів на 200 Гб... до кінця наступного тижня все залию...
можу і зараз - файли готові но недуже відрегульовано відставання по звуку(я ж нехочу зробити так як в піратах карибського моря...)

Kuzmenko 
Відео Гуртом - команда HD
Відео Гуртом - команда HD


З нами з: 02.02.10
Востаннє: 03.12.16
Повідомлень: 144

2011-01-04 19:06  
завтра залию файли вечерком.... вже докачало але зараз немаю часу - готуюся до контрольної...
Ma3au 
VIP


З нами з: 19.03.09
Востаннє: 28.11.16
Повідомлень: 264

2011-01-05 12:45  
та зараз ніби канікули ?"
Kuzmenko 
Відео Гуртом - команда HD
Відео Гуртом - команда HD


З нами з: 02.02.10
Востаннє: 03.12.16
Повідомлень: 144

2011-01-05 15:41  
канікули в лютому тиждень.... зараз підготовка до сесії
Kuzmenko 
Відео Гуртом - команда HD
Відео Гуртом - команда HD


З нами з: 02.02.10
Востаннє: 03.12.16
Повідомлень: 144

2011-01-06 23:32  
залию за 20 хв....
abodnya 
Відео Гуртом - фільмокрай
Відео Гуртом - фільмокрай


З нами з: 02.11.08
Востаннє: 07.12.16
Повідомлень: 5961

2011-01-06 23:33  
опис не забудь докорегувати)
Kuzmenko 
Відео Гуртом - команда HD
Відео Гуртом - команда HD


З нами з: 02.02.10
Востаннє: 03.12.16
Повідомлень: 144

2011-01-06 23:50  
Зараз перекидає файли з внутрішнього на зовшіншій вінчестер а поки редагую інформацію...
Petric 
Новенький


З нами з: 08.06.09
Востаннє: 04.12.16
Повідомлень: 4

2011-01-06 23:52  
Та вже шпигунів чекаємо не дочекаємося. а горішки вже щосили з іншого ua трекера: (
Kuzmenko 
Відео Гуртом - команда HD
Відео Гуртом - команда HD


З нами з: 02.02.10
Востаннє: 03.12.16
Повідомлень: 144

2011-01-07 00:50  
Горішки залию лише з оригінальними доріжками 4 Мб/с а повні блюрейки немало важать навіть для мене....
Petric 
Новенький


З нами з: 08.06.09
Востаннє: 04.12.16
Повідомлень: 4

2011-01-09 00:06  
Що сталося з роздачею? і так майже 2е доби скачував, а зараз і зовсім стало на 96%

Хоч трошки швидкості , а? Happy

Kuzmenko 
Відео Гуртом - команда HD
Відео Гуртом - команда HD


З нами з: 02.02.10
Востаннє: 03.12.16
Повідомлень: 144

2011-01-10 12:45  
я роздав повністю 3 людям і далі залишаюся на роздачі для UA-IX.....
Denoks 
Новенький


З нами з: 11.03.11
Востаннє: 27.05.16
Повідомлень: 18

2011-03-16 09:12  
Дайте скорости пожалуйста!!!
Kuzmenko 
Відео Гуртом - команда HD
Відео Гуртом - команда HD


З нами з: 02.02.10
Востаннє: 03.12.16
Повідомлень: 144

2011-03-16 09:13  
Ввечері стану на роздачу.....
Kiara 
Свій


З нами з: 18.08.10
Востаннє: 14.09.16
Повідомлень: 94

2012-09-07 14:15  
підкиньте швидкості трохи.. бо я так цілий день качатиму... Sad (1)
анна ковбасенко 
Новенький


З нами з: 17.10.12
Востаннє: 24.04.13
Повідомлень: 4

2013-01-01 14:43  
З Новим 2013 роком!!!! Я вже 2 години качаю і досі на нулі!! Будь ласка, підкиньте швидкості))))
Ваш часовий пояс: GMT + 2 Години

Нова тема   Відповісти Сторінка:  1, 2  наступна