Завантажити та скачати торренти українською


Люди в чорному / Men in Black (1997) Remux 1080p Ukr/Eng | Sub-Eng

Нові коментарі

Нова тема   Відповісти
Останній раз роздавалося zyat5 (2016-12-10)
Автор Повідомлення
Kuzmenko 
Відео Гуртом - команда HD
Відео Гуртом - команда HD


З нами з: 02.02.10
Востаннє: 03.12.16
Повідомлень: 144

2010-12-19 16:27  
Люди в чорному / Men in Black (1997) Remux 1080p Ukr/Eng | Sub-Eng



Жанр: фантастика, пригодницький, комедія
Країна: США



Кіностудія / кінокомпанія: Коламбія Пікчез (Columbia Pictures)
Режисер: Беррі Зонненфельд
Актори: Уїлл Сміс, Томмі Лі Джоунс, Лінда Фіорентино, Вінсент Д'Онофріо, Ріп Торн

Сюжет:Лише люди в чорному знають найбільш захищену таємницю світу: наша земля кишить прибульцями. Одні з них мирно співіснують з нами, інших полюють, виганяють і, іноді, навіть вбивають. Такі роботу виконують двоє найкращих агентів - Джей та Кей. Але коли на Землю прибуває велетенський тарган, навіть найновіша зброя та техніка можуть не врятувати. Якщо зупинити монстра не вдасться - Землі кінець.

Тривалість: 01:37:58
Якість: Remux 1080p
Відео:
кодек:
розмір кадру: 1920 х 1080
бітрейт: 24.4 Мбіт/с

Аудіо # 1:
мова: українська
кодек: 5.1
бітрейт: 384 кб/с

Аудіо # 2:
мова: англійська
переклад: оригінал
кодек: 5.1
бітрейт: 1510 кб/с

Субтитри:
мова: англійська
тип: пререндерні
Скріншоти



MediaInfo

General
ID : 1
Complete name : H:\Downloads\Релізи\[Hurtom.com]\Men in Black (1997) Remux 1080p Ukr,Eng.Sub-Eng[Hurtom].m2ts
Format : BDAV
Format/Info : Blu-ray Video
File size : 18.6 GiB
Duration : 1h 37mn
Overall bit rate : 27.2 Mbps
Maximum Overall bit rate : 35.5 Mbps

Video
ID : 4113 (0x1011)
Menu ID : 1 (0x1)
Format : AVC
Format/Info : Advanced Video Codec
Format profile : [email protected]
Format settings, CABAC : Yes
Format settings, ReFrames : 2 frames
Format settings, GOP : M=1, N=4
Codec ID : 27
Duration : 1h 37mn
Bit rate mode : Variable
Bit rate : 24.2 Mbps
Width : 1 920 pixels
Height : 1 080 pixels
Display aspect ratio : 16:9
Frame rate : 23.976 fps
Color space : YUV
Chroma subsampling : 4:2:0
Bit depth : 8 bits
Scan type : Progressive
Bits/(Pixel*Frame) : 0.488
Stream size : 16.6 GiB (89%)
Language : English

Audio #1
ID : 4352 (0x1100)
Menu ID : 1 (0x1)
Format : AC-3
Format/Info : Audio Coding 3
Mode extension : CM (complete main)
Codec ID : 129
Duration : 1h 37mn
Bit rate mode : Constant
Bit rate : 384 Kbps
Channel(s) : 6 channels
Channel positions : Front: L C R, Side: L R, LFE
Sampling rate : 48.0 KHz
Bit depth : 16 bits
Stream size : 269 MiB (1%)
Language : Ukrainian

Audio #2
ID : 4353 (0x1101)
Menu ID : 1 (0x1)
Format :
Format/Info : Digital Theater Systems
Codec ID : 130
Duration : 1h 37mn
Bit rate mode : Constant
Bit rate : 1 510 Kbps
Channel(s) : 6 channels
Channel positions : Front: L C R, Side: L R, LFE
Sampling rate : 48.0 KHz
Bit depth : 24 bits
Stream size : 1.03 GiB (6%)
Language : English

Text #1
ID : 4608 (0x1200)
Menu ID : 1 (0x1)
Format : PGS
Codec ID : 144
Language : English

Text #2
ID : 4609 (0x1201)
Menu ID : 1 (0x1)
Format : PGS
Codec ID : 144
Language : English

Text #3
ID : 4610 (0x1202)
Menu ID : 1 (0x1)
Format : PGS
Codec ID : 144
Video delay : 3s 253ms
Language : English
Джерело: &
Особиста оцінка: 10 - без зайвих вагань рекомендую всім!


Золотий реліз (завантажене не впливає на рейтинг)
 Трекер:    Зареєстрований   

Завантажити / скачати фільм українською



відео для новачків



 Зареєстрований:   2010-12-19 17:49
 Розмір:   18.64 GB 
 Оцінка фільму:   9.8/10 (Голосів: 16)
   
Інші релізи
   Люди в чорному / Men in Black (1997) 1080p Ukr/Eng | Sub Eng DiGen  3 / 1   7.33 GB   2010-12-24 03:59 
adas.yura 
Новенький


З нами з: 29.09.10
Востаннє: 30.04.15
Повідомлень: 3

2010-12-25 01:05  
Це не Remux, ремукс це коли перепаковано в якийсь формат без втрати якості. Наприклад AVI, WMV чи MKV... Тут же просто взятий окремий файл з BD диска... Я перемуксував його в Матрьошку. Можу запропонувати перепакований Вам файл Happy, тоді буде ремукс
Kuzmenko 
Відео Гуртом - команда HD
Відео Гуртом - команда HD


З нами з: 02.02.10
Востаннє: 03.12.16
Повідомлень: 144

2011-01-22 14:01  
Це не просто взятий файл - частенько файли на BD диску розрізані

ренюкс - це .ts .m2ts .mkv

в ренюксі повинні бути вирізані всі зайві сигменти, меню, мови...

okzdp 
Поважний учасник


З нами з: 27.05.09
Востаннє: 10.12.16
Повідомлень: 209

2012-11-03 10:43  
Дайте газку плз
kelotich94 
Відео Гуртом - підтримка та поширення
Відео Гуртом - підтримка та поширення


З нами з: 02.03.11
Востаннє: 29.07.16
Повідомлень: 45

2012-11-03 15:43  
Не бачу сенсу в такій "важкій" роздачі. 19 Гб - це трошки забагато =)
Володя Мейклавчик 
Новенький


З нами з: 23.01.12
Востаннє: 10.12.16
Повідомлень: 20

2014-04-25 20:01  
Немає сенсу завантажувати. Фільм 97-го року і якість картинки відповідна. Завантажив, подивився, пожалів що завантажив. Треба було вантажити з меншим розміром. Сам фільм кльовий, п'ятий раз дивлюся.
leroykendall 
Модератор HD


З нами з: 03.01.11
Востаннє: 20.11.16
Повідомлень: 749

2014-04-26 09:00  
Володя Мейклавчик написано:
Немає сенсу завантажувати. Треба було вантажити з меншим розміром.

Якщо має значення розмір, то так, не варто було.
А якщо ні, то тут непережата якість картинки як на блю-рей, і воно того варто.

Ваш часовий пояс: GMT + 2 Години

Нова тема   Відповісти