Завантажити та скачати торренти українською


Лара Крофт: Розкрадачка гробниць: Колиска життя / Lara Croft Tomb Raider: The Cradle of Life (2003) Remux 1080p Ukr/Eng

Нові коментарі

Нова тема   Відповісти
Автор Повідомлення
Kuzmenko 
Відео Гуртом - команда HD
Відео Гуртом - команда HD


З нами з: 02.02.10
Востаннє: 03.12.16
Повідомлень: 144

2010-12-18 01:57  
Лара Крофт: Розкрадачка гробниць: Колиска життя / Lara Croft Tomb Raider: The Cradle of Life (2003) Remux 1080p Ukr/Eng | Sub-Eng



Жанр: бойовик, пригодницький, фентезі
Країна: Німеччина, США, Японія, Великобританія



Кіностудія / кінокомпанія: Mutual Film Corporation, Paramount Pictures
Режисер: Ян де Бонт / Jan de Bont
Актори: Анджеліна Джолі /Angelina Jolie/, Джерард Батлер /Gerard Butler/, Кріс Беррі /Chris Barrie/, Ноа Тейлор /Noah Taylor/, Джимон Хунсу /Djimon Hounsou

Сюжет:
У новій картині невгомонна Лара відправиться на пошуки унікального артефакту, який за стародавніх давен вважався першоджерелом всього зла, - горезвісного ящика пандори. Причому відважної Ларі необхідно відшукати ящик раніше, ніж це зробить зловісний вчений (Сайерен Хайндз - "Ціна страху"), плануючий використовувати його для масового знищення населення планети. Напарником прекрасної розкрадачки в цій надзвичайно небезпечній і важкій справі виступить спецназівець Тері Шерідан (Джерард Батлер - "Влада вогню"), колишній коханий Лари, а нині державний зрадник і в'язень суворого режиму. Разом з Ларою ви побуваєте в Греції, Гонконзі, Кенії і врятуєте людство від загибелі!


Тривалість: 01:34:48
Якість: Remux 1080p
Відео:
кодек: VC-1
розмір кадру: 1920 х 1080
бітрейт: 19.9 Мб/с

Аудіо # 1:
мова: українська
переклад: багатоголосий закадровий
кодек: 5.1
бітрейт: 384 кб/с

Аудіо # 2:
мова: українська
переклад: багатоголосий закадровий
кодек: 5.1
бітрейт: 384 кб/с

Аудіо # 3:
мова: англійська
переклад: оригінал
кодек:
бітрейт: 1510 кб/с

Субтитри:
мова: англійська
тип: пререндерні
Скріншоти




MediaInfo

General
ID : 1
Complete name : H:\Downloads\Релізи\[Hurtom.com]\Lara Croft Tomb Raider The Cradle of Life (2003) Remux 1080p VC-1 UkrEng Sub-Eng.m2ts
Format : BDAV
Format/Info : Blu-ray Video
File size : 19.0 GiB
Duration : 1h 57mn
Overall bit rate : 23.1 Mbps
Maximum Overall bit rate : 35.5 Mbps

Video
ID : 4113 (0x1011)
Menu ID : 1 (0x1)
Format : VC-1
Format profile : [email protected]
Codec ID : 234
Duration : 1h 57mn
Bit rate : 19.9 Mbps
Width : 1 920 pixels
Height : 1 080 pixels
Display aspect ratio : 16:9
Frame rate : 23.976 fps
Chroma subsampling : 4:2:0
Bit depth : 8 bits
Scan type : Progressive
Bits/(Pixel*Frame) : 0.401
Stream size : 16.3 GiB (86%)

Audio #1
ID : 4352 (0x1100)
Menu ID : 1 (0x1)
Format : AC-3
Format/Info : Audio Coding 3
Mode extension : CM (complete main)
Codec ID : 129
Duration : 1h 57mn
Bit rate mode : Constant
Bit rate : 384 Kbps
Channel(s) : 6 channels
Channel positions : Front: L C R, Side: L R, LFE
Sampling rate : 48.0 KHz
Bit depth : 16 bits
Stream size : 322 MiB (2%)
Language : Ukrainian

Audio #2
ID : 4353 (0x1101)
Menu ID : 1 (0x1)
Format : AC-3
Format/Info : Audio Coding 3
Mode extension : CM (complete main)
Codec ID : 129
Duration : 1h 57mn
Bit rate mode : Constant
Bit rate : 384 Kbps
Channel(s) : 6 channels
Channel positions : Front: L C R, Side: L R, LFE
Sampling rate : 48.0 KHz
Bit depth : 16 bits
Stream size : 322 MiB (2%)
Language : Ukrainian

Audio #3
ID : 4354 (0x1102)
Menu ID : 1 (0x1)
Format :
Format/Info : Digital Theater Systems
Codec ID : 130
Duration : 1h 57mn
Bit rate mode : Constant
Bit rate : 1 510 Kbps
Channel(s) : 6 channels
Channel positions : Front: L C R, Side: L R, LFE
Sampling rate : 48.0 KHz
Bit depth : 16 bits
Stream size : 1.24 GiB (7%)
Language : English

Text
ID : 4608 (0x1200)
Menu ID : 1 (0x1)
Format : PGS
Codec ID : 144
Language : English
Джерело: &
Особиста оцінка: 10 - без зайвих вагань рекомендую всім!


Золотий реліз (завантажене не впливає на рейтинг)
 Трекер:    Зареєстрований   

Завантажити / скачати фільм українською



відео для новачків



 Зареєстрований:   2010-12-18 02:54
 Розмір:   18.98 GB 
 Оцінка фільму:   10/10 (Голосів: 8)
   
Kuzmenko 
Відео Гуртом - команда HD
Відео Гуртом - команда HD


З нами з: 02.02.10
Востаннє: 03.12.16
Повідомлень: 144

2010-12-18 01:58  
Фільм добавлю завтра....на сон сильно клонить...

Якщо є якісь побажання, щодо фільму, який треба залити сюди - пишіть...

carrera_zola 
Поважний учасник


З нами з: 31.10.10
Востаннє: 31.05.15
Повідомлень: 160

2010-12-18 11:19  
Цитата:
18.98 GB 

Ого :D

Kuzmenko 
Відео Гуртом - команда HD
Відео Гуртом - команда HD


З нами з: 02.02.10
Востаннє: 03.12.16
Повідомлень: 144

2010-12-18 13:38  
Якість: Remux 1080p
Відео:
кодек: VC-1
розмір кадру: 1920 х 1080
бітрейт: 20.1 Мб/с

[email protected] 
Свій


З нами з: 10.08.10
Востаннє: 03.12.16
Повідомлень: 51

2010-12-20 12:08  
а чому контейнер не мкв?
Kuzmenko 
Відео Гуртом - команда HD
Відео Гуртом - команда HD


З нами з: 02.02.10
Востаннє: 03.12.16
Повідомлень: 144

2010-12-23 17:34  
в МКВ такий файл займав більше пам'яті... до того ж такий формат простіше створити... це формат блюрейки
[email protected] 
Свій


З нами з: 10.08.10
Востаннє: 03.12.16
Повідомлень: 51

2010-12-24 19:25  
Я якось більше звик до мкв, всі фільми які були перемуксував в мкв
Ваш часовий пояс: GMT + 2 Години

Нова тема   Відповісти