Завантажити та скачати торренти українською


Атмасфера - Знайти (2006) [FLAC] | Art-rock

Нові коментарі

Нова тема   Відповісти
Автор Повідомлення
MadAnd 
Новенький


З нами з: 04.09.09
Востаннє: 02.12.16
Повідомлень: 19

2010-12-17 21:30  
Атмасфера - Знайти (2006) [FLAC] | Art-rock



Стиль: Art Rock
Країна, місто: Україна
Сайти: Офіційний сайт

Виконавці:
Андрій Шадій - гітари, вокал
Анастасія Яремчук - флейта, вокал
Ігор Сас - бас-гітара
Тарас Мельниченко - барабани
Юлія Яремчук - клавішні, вокал
Пісні:
    01. Чому
    02. Дивна Любов
    03. Знайти
    04. Серце
    05. Місто
    06. Самотність
    07. Як всі
    08. Те саме
    09. Сонце

Тривалість: 00:43:30
Мова: українська
Аудіо-кодек: FLAC
Бітрейт: 1024 кб/с
Джерело: оригінальний CD
Додаткова інформація
По мережі гуляє версія пісні Самотність з, приблизно, хвилиною тиші в кінці, в цій роздачі всі пісні є повноцінними.
Atmasfera - Знайти....log

Exact Audio Copy V1.0 beta 1 from 15. November 2010

EAC extraction logfile from 18. December 2010, 1:20

Atmasfera / Знайти...

Used drive : _NEC DVD_RW ND-4570A Adapter: 0 ID: 0

Read mode : Secure
Utilize accurate stream : Yes
Defeat audio cache : Yes
Make use of C2 pointers : No

Read offset correction : 48
Overread into Lead-In and Lead-Out : No
Fill up missing offset samples with silence : Yes
Delete leading and trailing silent blocks : No
Null samples used in CRC calculations : No
Used interface : Native Win32 interface for Win NT & 2000
Gap handling : Not detected, thus appended to previous track

Used output format : User Defined Encoder
Selected bitrate : 1024 kBit/s
Quality : High
Add ID3 tag : No
Command line compressor : C:\Program Files\FLAC\flac.exe
Additional command line options : -8 -V -T "ARTIST=%a" -T "TITLE=%t" -T "ALBUM =%g" -T "DATE =%y" -T "TRACKNUMBER=%n" -T "GENRE =%m" -T" COMMENT= EAC FLAC" -8 %s

TOC of the extracted CD

Track | Start | Length | Start sector | End sector
---------------------------------------------------------
1 | 0:00.00 | 5:23.27 | 0 | 24251
2 | 5:23.27 | 5:51.66 | 24252 | 50642
3 | 11:15.18 | 5:09.10 | 50643 | 73827
4 | 16:24.28 | 3:45.70 | 73828 | 90772
5 | 20:10.23 | 4:26.73 | 90773 | 110795
6 | 24:37.21 | 5:56.17 | 110796 | 137512
7 | 30:33.38 | 3:19.34 | 137513 | 152471
8 | 33:52.72 | 3:00.54 | 152472 | 166025
9 | 36:53.51 | 6:36.38 | 166026 | 195763

Track 1

Filename E:\Music\Атмасфера\2006 - Знайти\01 - Чому.wav

Peak level 99.8 %
Extraction speed 4.0 X
Track quality 99.9 %
Test CRC F47C91CF
Copy CRC F47C91CF
Copy OK

Track 2

Filename E:\Music\Атмасфера\2006 - Знайти\02 - Дивна любов.wav

Peak level 99.8 %
Extraction speed 4.2 X
Track quality 99.9 %
Test CRC FBFBF24D
Copy CRC FBFBF24D
Copy OK

Track 3

Filename E:\Music\Атмасфера\2006 - Знайти\03 - Знайти.wav

Peak level 99.8 %
Extraction speed 3.8 X
Track quality 99.8 %
Test CRC 9FEA94D0
Copy CRC 9FEA94D0
Copy OK

Track 4

Filename E:\Music\Атмасфера\2006 - Знайти\04 - Серце.wav

Peak level 99.8 %
Extraction speed 3.1 X
Track quality 99.8 %
Test CRC EDE08C52
Copy CRC EDE08C52
Copy OK

Track 5

Filename E:\Music\Атмасфера\2006 - Знайти\05 - Місто.wav

Peak level 99.8 %
Extraction speed 3.9 X
Track quality 99.8 %
Test CRC 999FFBEB
Copy CRC 999FFBEB
Copy OK

Track 6

Filename E:\Music\Атмасфера\2006 - Знайти\06 - Самотність.wav

Peak level 99.8 %
Extraction speed 4.3 X
Track quality 99.8 %
Test CRC 088EDF87
Copy CRC 088EDF87
Copy OK

Track 7

Filename E:\Music\Атмасфера\2006 - Знайти\07 - Як всі.wav

Peak level 99.8 %
Extraction speed 3.2 X
Track quality 99.9 %
Test CRC E00B3F67
Copy CRC E00B3F67
Copy OK

Track 8

Filename E:\Music\Атмасфера\2006 - Знайти\08 - Те саме....wav

Peak level 99.8 %
Extraction speed 2.3 X
Track quality 99.6 %
Test CRC 9ACE4B74
Copy CRC 9ACE4B74
Copy OK

Track 9

Filename E:\Music\Атмасфера\2006 - Знайти\09 - Сонце.wav

Peak level 99.8 %
Extraction speed 4.1 X
Track quality 99.9 %
Test CRC 605D29E9
Copy CRC 605D29E9
Copy OK

No errors occurred

End of status report
Якщо Ви справді бажаєте підтримати українське - після прослуховування, якщо музика вам сподобалась, придбайте ліцензійний диск.
Підтримаймо вітчизняних виконавців!


Срібний реліз (на рейтинг впливає 50% завантаженого)
 Трекер:    Зареєстрований   

Завантажити / скачати українську музику



відео для новачків



 Зареєстрований:   2011-03-02 23:02
 Розмір:   301 MB 
 Оцінка музики:   9.9/10 (Голосів: 18)
   
west 
Поважний учасник


З нами з: 03.03.09
Востаннє: 08.12.16
Повідомлень: 165

2010-12-17 21:47  
а *.log файлу немає?
MadAnd 
Новенький


З нами з: 04.09.09
Востаннє: 02.12.16
Повідомлень: 19

2010-12-17 21:54  
стискав першою фрішною прогою яку видав гугль, з макс якістю яку можна було вибрати в опціях. лог-файлу воно ніби не робило.
якщо це критично то можу перетиснути якоюсь православнішою утиліткою, тільки скажіть Happy

west 
Поважний учасник


З нами з: 03.03.09
Востаннє: 08.12.16
Повідомлень: 165

2010-12-17 22:02  
Думаю краще буде якщо таки зробите нормальний ріп, рекомендую EAC, ось тут пан модератор інструкцію написав http://toloka.to/t9896
Наперед дякую Happy

MadAnd 
Новенький


З нами з: 04.09.09
Востаннє: 02.12.16
Повідомлень: 19

2010-12-18 01:35  
перетиснув EAC'ом і перезалив торрент.
jinotot 
Почесний оцифрувальник літератури


З нами з: 28.01.09
Востаннє: 04.12.16
Повідомлень: 3235

2010-12-18 01:47  
MadAnd, дякую за реліз!
Як щодо сканів обкладинки й диска? Ну, чи хоча б фотографій? Wink (2)

І якщо не секрет — де й коли таки можна було купити цей диск? Happy Бо я цієї епохи не застав...

MadAnd 
Новенький


З нами з: 04.09.09
Востаннє: 02.12.16
Повідомлень: 19

2010-12-18 02:44  
обкладинок не можу викласти бо не маю сканера і фотіка нормального Sad (1)

а купив його після концерту (http://atmasfera.com/uk/concerts - той що Львів), передвчора. Сам здивувався, що є цей альбом.

jinotot 
Почесний оцифрувальник літератури


З нами з: 28.01.09
Востаннє: 04.12.16
Повідомлень: 3235

2010-12-18 11:35  
MadAnd, нічого собі! А там не вказано — може, це таки перевидання? Чи це все ж отой старий тираж 2006 року?

Якщо десь з’явиться нагода сканера — будемо щиро вдячні, бо у ранішому релізі не тільки пісні були куці, але й обкладинка (як видно з обрізаного напису) — також.

MadAnd 
Новенький


З нами з: 04.09.09
Востаннє: 02.12.16
Повідомлень: 19

2010-12-18 13:31  
jinotot, як тільки дістанусь до якогось сканера - одразу викладу всі обкладинки. Можливо пора перенести реліз з розділу "Поп, естрада", в більш відповідне місце форуму, ближче до року ? Wink (1)

це однозначно не перевидання, бо обкладинка ідентична тій що в мережі, і копірайт (с) 2006.

jinotot 
Почесний оцифрувальник літератури


З нами з: 28.01.09
Востаннє: 04.12.16
Повідомлень: 3235

2010-12-18 16:16  
MadAnd написано:
Можливо пора перенести реліз з розділу "Поп, естрада", в більш відповідне місце форуму, ближче до року ?
Не помітив. Зараз перенесу.
А розділ можна було вибрати при створенні релізу.
MadAnd написано:
як тільки дістанусь до якогось сканера - одразу викладу всі обкладинки
Дякую! Чекатиму.
bot 
робот


З нами з: 30.09.07
Востаннє: 26.05.05
Повідомлень: 16051

2010-12-18 16:17  
Тему перенесено з Поп, естрада до форуму Рок, Метал, Альтернатива, Панк, СКА

Причина перенесення: стиль
jinotot

Swirl 
Оцифрування книг Гуртом
Оцифрування книг Гуртом


З нами з: 12.10.09
Востаннє: 24.02.15
Повідомлень: 495

2010-12-18 17:58  
Не туди пульнули.
bot 
робот


З нами з: 30.09.07
Востаннє: 26.05.05
Повідомлень: 16051

2010-12-18 18:14  
Тему перенесено з Рок, Метал, Альтернатива, Панк, СКА до форуму Рок, Метал, Альтернатива, Панк, СКА

Причина перенесення: якість :)
jinotot

Lev 
VIP


З нами з: 14.10.09
Востаннє: 09.12.16
Повідомлень: 1819

2011-02-05 06:04  
lossless - це дуже добре Happy
mahamundi 
Новенький


З нами з: 15.02.11
Востаннє: 28.02.11
Повідомлень: 2

2011-02-15 13:02  
перепрошую. Happy а якби оце залити не на торренті... бо на жаль не маю виходу на торент... можливі якісь інші варінти ?
Musketeer 
VIP


З нами з: 04.03.08
Востаннє: 05.06.13
Повідомлень: 3674

2011-02-15 14:07  
mahamundi написано:
бо на жаль не маю виходу на торент...

а які виходи тобі потрібні? Happy
ставиш собі торрент-клієнт і вантажиш досхочу...

mahamundi 
Новенький


З нами з: 15.02.11
Востаннє: 28.02.11
Повідомлень: 2

2011-02-15 16:21  
Розумієте, в мене на роботі закрито доступ до торенту. Sad (1)

(Наша мова кольорова. Табачник-пішов геть . Вождів до біса не землі-землі бракує рук.)

MadAnd 
Новенький


З нами з: 04.09.09
Востаннє: 02.12.16
Повідомлень: 19

2011-02-16 20:16  
Цитата:
Розумієте, в мене на роботі закрито доступ до торенту.


Ви пробували в торрент-клієнті увімкнути шифрування трафіку ? Можливо це обійде обмеження на роботі ?

Tarasyk 
Відео Гуртом - фільмокрай
Відео Гуртом - фільмокрай


З нами з: 26.08.09
Востаннє: 11.12.16
Повідомлень: 5974

2011-03-03 16:40  
З якої причини було замінено торрент-файл?

І яким чином уже 11 сідів, при тому, що в кожного UL рейтинг 0, завантажено 0, віддано 0?

MadAnd 
Новенький


З нами з: 04.09.09
Востаннє: 02.12.16
Повідомлень: 19

2011-03-03 22:09  
Методом випадкового натискання на "(Зняти реєстрацію)" Happy На жаль воно навіть підтвердження не спитало.
Це ж не смертельно ? Принаймні я досі живий. Wink (1)

Tarasyk 
Відео Гуртом - фільмокрай
Відео Гуртом - фільмокрай


З нами з: 26.08.09
Востаннє: 11.12.16
Повідомлень: 5974

2011-03-03 22:20  
MadAnd написано:
Методом випадкового натискання на "(Зняти реєстрацію)"

Аааа, тоді все стає на свої місця. Дякую. Звісно нічого страшного Happy
Просто я міг би й не помітити і воно висіло б довго без перевірки.

Ваш часовий пояс: GMT + 2 Години

Нова тема   Відповісти