Завантажити та скачати торренти українською


Ігор Закус (Igor Zakus) - Присвяти (Dedications) (2003) [APE] | Jazz / Funk

Нові коментарі

Нова тема   Відповісти
Останній раз роздавалося Myfordownloads (2016-10-09)
Автор Повідомлення
Lev 
VIP


З нами з: 14.10.09
Востаннє: 05.12.16
Повідомлень: 1819

2010-12-15 20:17  
Ігор Закус (Igor Zakus) - Присвяти (Dedications) (2003) [APE] | Jazz / Funk



Стиль: Jazz , Funk
Країна, місто: Україна, Київ
Сайти: Офіційний сайт
Видавець: Lemma
Виконавці:
Ігорь Закус - бас-гітари
Родіон Іванов - клавішні
Євген Дідик - труба
Віталій Іванов - саксофон
Михайло Баньковський - гітара
Сергій Табунщик - ударні
Анатолій Шмаргун - перкусія
Марина Юрасова - вокал

Музика : Ігор Закус (2,3,5,6,7,8,9), С.Діденко (1), Р.Іванов (4), В.Медвідь (10)
Аранжування Ігоря Закуса
Пісні:
    01. Boytsoon (05:11)
    02. Music Man (07:29)
    03. Ностальгія (05:48)
    04. Space Dog (07:18)
    05. Під враженням (06:26)
    06. Колискова (06:28)
    07. Funk Blues (Hey You) (05:04)
    08. Присвята (06:05)
    09. Mr. C. (06:16)
    10. Сумна (06:56)
    log EAC
    Exact Audio Copy V0.99 prebeta 4 from 23. January 2008

    Отчёт EAC об извлечении, выполненном 17. ноября 2008, 10:34

    Игорь Закус / Присвяти

    Дисковод: Optiarc DVD RW AD-5170A Adapter: 0 ID: 0

    Режим чтения : Достоверность
    Использование точного потока : Да
    Отключение кэша аудио : Да
    Использование указателей C2 : Нет

    Коррекция смещения при чтении : 48
    Способность читать области Lead-in и Lead-out : Нет
    Заполнение пропущенных сэмплов тишиной : Да
    Удаление блоков с тишиной в начале и конце : Нет
    При вычислениях CRC использовались нулевые сэмплы : Да
    Интерфейс : Установленный внешний ASPI-интерфейс

    Выходной формат : Внутренние WAV-операции
    Формат сэмплов : 44.100 Гц; 16 бит; стерео

    TOC извлечённого CD

    Трек | Старт | Длительность | Начальный сектор | Конечный сектор
    ---------------------------------------------------------------------
    1 | 0:00.00 | 5:11.30 | 0 | 23354
    2 | 5:11.30 | 7:29.28 | 23355 | 57057
    3 | 12:40.58 | 5:48.25 | 57058 | 83182
    4 | 18:29.08 | 7:17.65 | 83183 | 116022
    5 | 25:46.73 | 6:26.34 | 116023 | 145006
    6 | 32:13.32 | 6:27.56 | 145007 | 174087
    7 | 38:41.13 | 5:03.60 | 174088 | 196872
    8 | 43:44.73 | 6:04.50 | 196873 | 224222
    9 | 49:49.48 | 6:16.21 | 224223 | 252443
    10 | 56:05.69 | 6:56.29 | 252444 | 283672

    Характеристики диапазона извлечения и сообщения об ошибках

    Выбранный диапазон

    Имя файла E:\Torrent\Закус\Игорь Закус - Присвяти.wav

    Пиковый уровень 97.8 %
    Качество диапазона 99.9 %
    CRC копии 9DA7FF03
    Копирование... OK

    Ошибок не произошло

    Конец отчёта

Тривалість: 01:03:02
Мова: інструментальні композиції
Аудіо-кодек: APE
Бітрейт: 901 кб/с, 16 bit / 44100 Hz
Джерело: інший торрент-трекер
Додаткова інформація:
Тип ріпу: image+.cue

Роздача містить скани поліграфії.
Олексій Коган про цей альбом
«Як все ж таки важко писати про дебютний альбом виконавця, коли відчуваєш, що не можеш бути об’єктивним – мені завжди подобалось усе, що робить Ігор, і я дуже ціную дружбу з ним. Я знаю, як довго Ігор готувався до видання свого диску і як наполегливо над ним працював. Присвяти – це своєрідний підсумок першого (я сподіваюсь) етапу творчості Закуса – фанатика своїх численних бас-гітар, стабільного акомпаніатора, тонкого соліста і вдумливого композитора. Вміння поєднати жорсткий фанкований ритм з вишуканою мелодією, здатність не користуватися технікою заради техніки і знайти істину в паузах, знання ціни ‘чесним’ нотам або фразам – усе це відчуваеться у п’єсах альбому Закуса. Ігор – розсудлива і зважена людина, яка оперує звичайними на перший погляд, людськими цінностями. Він щирий у музиці і житті – може, тому всі його присвяти створені для близьких I рідних людей, музикантів, які вплинули на його світогляд і навіть для улюбленої радіопрограми.

ПрисвятиГолоси та звуки, які з являються між п’єсами, – це теж певна ознака цього альбому. 3 Ігором грають чудовІ музиканти, чиї імена ви знайдете в буклеті, а шанувальники джазу, впевнений, обов язково впізнають відомих українських виконавців – партнерів Ігоря. Доречі, 2 твори написали клавішники Сергій Діденко та Родіон Іванов. А третій твір надійшов з Нью-Йорка – наш земляк, бас-гітарист і гітарний майстер Вадим Медвідь віддав Ігорю свою тему «Сумна» і записав бас-гітарнйй супровід, під який у Киев! було записано решту усіх партій. В альбомі є також символічний вступ – дитячий голос віспівує звичайнісіньку гаму, сім нот… Вони ж, ті самі нотки, завершують цей альбом. А може символізують початок чогось нового? Вустами дитини… Здається, Закусу вістачить цих нот, аби зробити щось нове і обов’язково цікаве.»


Якщо Ви справді бажаєте підтримати українське - після прослуховування, якщо музика вам сподобалась, придбайте ліцензійний диск. Підтримаймо вітчизняних виконавців!


Срібний реліз (на рейтинг впливає 50% завантаженого)
 Трекер:    Зареєстрований   

Завантажити / скачати українську музику



відео для новачків



 Зареєстрований:   2010-12-15 20:17
 Розмір:   415 MB 
 Оцінка музики:   10/10 (Голосів: 10)
   
Ваш часовий пояс: GMT + 2 Години

Нова тема   Відповісти