Завантажити та скачати торренти українською


10 причин моєї ненависті / 10 Things I Hate about You (1999) 720p

Нові коментарі

Нова тема   Відповісти
Автор Повідомлення
Zeus62 
Відео Гуртом - команда HD
Відео Гуртом - команда HD


З нами з: 29.12.08
Востаннє: 16.11.16
Повідомлень: 330

2010-12-15 02:35  
10 причин моєї ненависті / 10 Things I Hate about You (1999) 720p



Жанр: комедія
Країна: США



Кіностудія / кінокомпанія: Touchstone Pictures
Режисер: Джіл Джангер
Актори: Хіт Леджер, Джулія Стайлс, Джозеф Гордон-Левітт, Лариса Олейнік, Ларрі Міллер, Ендрю Кіген, Девід Крамхольц, Сьюзан Мей Претт

Сюжет:
Дві сестри вчаться в школі: старша, Кет, робить все назло і від неї слова доброго не почуєш, а молодша, Б'янка - наївна і закохана, дуже хоче на побачення. Суворий батько - виховує дітей без матері - встановлює правило: молодша не йде нікуди, якщо не йде старша. Найпривабливіший хлопець школи, щоб витягнути Б'янку з дому, платить хулігану і бунтарю Патріку, аби він запросив Кет на побачення. Патрік - хуліган, але Кет теж не подарунок, ще треба подивитись, у кого гірший характер.


Тривалість: 01:37:36
Якість:
Відео:
кодек:
розмір кадру: 1280x696
бітрейт: 5674 кб/с

Аудіо:
мова: українська
переклад: двоголосий закадровий
кодек: 5.1
бітрейт: 448 кб/с
MediaInfo:
Format : Matroska
File size : 4.13 GiB
Duration : 1h 37mn
Overall bit rate : 6 052 Kbps
Encoded date : UTC 2011-12-22 16:49:06
Writing application : mkvmerge v4.9.1 ('Ich will') зібрано Jul 23 2011 09:44:16
Writing library : libebml v1.2.1 + libmatroska v1.1.1

Video
ID : 1
Format : AVC
Format/Info : Advanced Video Codec
Format profile : [email protected]
Format settings, CABAC : Yes
Format settings, ReFrames : 12 frames
Codec ID : V_MPEG4/ISO/AVC
Duration : 1h 37mn
Bit rate : 5 674 Kbps
Width : 1 280 pixels
Height : 696 pixels
Display aspect ratio : 16:9
Frame rate mode : Variable
Frame rate : 23.976 fps
Color space : YUV
Chroma subsampling : 4:2:0
Bit depth : 8 bits
Scan type : Progressive
Bits/(Pixel*Frame) : 0.266
Stream size : 3.78 GiB (92%)
Writing library : core 112
Encoding settings : cabac=1 / ref=12 / deblock=1:-3:-3 / analyse=0x3:0x113 / me=umh / subme=10 / psy=1 / psy_rd=1,00:0,00 / mixed_ref=1 / me_range=64 / chroma_me=1 / trellis=2 / 8x8dct=1 / cqm=0 / deadzone=21,11 / fast_pskip=1 / chroma_qp_offset=-2 / threads=9 / sliced_threads=0 / nr=0 / decimate=1 / interlaced=0 / constrained_intra=0 / bframes=15 / b_pyramid=2 / b_adapt=2 / b_bias=0 / direct=1 / weightb=1 / open_gop=0 / weightp=2 / keyint=240 / keyint_min=23 / scenecut=40 / intra_refresh=0 / rc_lookahead=50 / rc=2pass / mbtree=1 / bitrate=5674 / ratetol=1,0 / qcomp=0,60 / qpmin=3 / qpmax=51 / qpstep=4 / cplxblur=20,0 / qblur=0,5 / ip_ratio=1,40 / aq=1:1,00
Language : English
Color primaries : BT.709-5, BT.1361, IEC 61966-2-4, SMPTE RP177
Transfer characteristics : BT.709-5, BT.1361
Matrix coefficients : BT.709-5, BT.1361, IEC 61966-2-4 709, SMPTE RP177

Audio
ID : 2
Format : AC-3
Format/Info : Audio Coding 3
Mode extension : CM (complete main)
Codec ID : A_AC3
Duration : 1h 37mn
Bit rate mode : Constant
Bit rate : 448 Kbps
Channel(s) : 6 channels
Channel positions : Front: L C R, Side: L R, LFE
Sampling rate : 48.0 KHz
Bit depth : 16 bits
Compression mode : Lossy
Delay relative to video : 300ms
Stream size : 313 MiB (7%)
Language : Ukrainian
Скріншоти:



Джерело: Власний ріп +
Подяка karvai0 за звукову доріжку, Leggy за синхронізацію доріжки 2.0 та Ermolenko за постер.
Перезавантажте торрент!
Причина:Створено власний ріп під ДВД-5. Доріжка перероблена мною в 5.1.
Семпл

Особиста оцінка: 10 - без зайвих вагань рекомендую всім!


Срібний реліз (на рейтинг впливає 50% завантаженого)
 Трекер:    Зареєстрований   

Завантажити / скачати фільм українською



відео для новачків



 Зареєстрований:   2011-12-23 00:34
 Розмір:   4.17 GB 
 Оцінка фільму:   10/10 (Голосів: 6)
   
Сонцеслав 
VIP


З нами з: 26.01.11
Востаннє: 21.11.16
Повідомлень: 385

2012-01-19 19:53  
Чи буде роздача?
Lesnichiy2004 
Свій


З нами з: 05.02.12
Востаннє: 29.09.16
Повідомлень: 60

2012-03-19 04:18  
[b]Сонцеслав[/b]
я б роздавав, але мій відеофайл (хоча теж був звідси) важить 3,46 Гб і вже відрізняється від цього релізу Sad (1)

braveboy 
Відео Гуртом - команда HD
Відео Гуртом - команда HD


З нами з: 15.06.10
Востаннє: 29.10.16
Повідомлень: 958

2012-03-19 04:53  
Lesnichiy2004

гляньте на дату комента
Сонцеслав написано:
додано: 2012-01-19 12:53


тим більше на роздачі є 5 сідерів

Lesnichiy2004 
Свій


З нами з: 05.02.12
Востаннє: 29.09.16
Повідомлень: 60

2012-03-19 18:43  
Ви праві Happy
Буду уважніший.

fl_fl 
Відео Гуртом - фільмокрай
Відео Гуртом - фільмокрай


З нами з: 26.05.09
Востаннє: 10.12.16
Повідомлень: 3047

2013-08-05 00:16  
Текст читали актори: Катерина Брайковська, Михайло Тишин
Ваш часовий пояс: GMT + 2 Години

Нова тема   Відповісти