Завантажити та скачати торренти українською


VA - SEX у нашому селі (2002) [FLAC] | Folk / Pop

Нові коментарі

Нова тема   Відповісти
Автор Повідомлення
Gienek_Lwow 
VIP


З нами з: 28.09.10
Востаннє: 04.12.16
Повідомлень: 541

2010-12-10 15:10  
VA - SEX у нашому селі (2002) [FLAC] | Folk / Pop



    Стиль: Ethno Folk Pop
    Країна, місто: Львів, Україна
    Видавець: Ліда
    Виконавці: Не відомо (?)
    Пісні:
      01. Коломийка Весiльна
      02. Коломийка Кавалєрська
      03. Чи Не Пiшли Би Ми?
      04. Коломийка Гуцульська
      05. Ой, Ти, Галю
      06. Коломийка Бойкiвська
      07. Весiльнi Переспiвки
      08. Дай, Рузя, Бузi
      09. Ода Пиву
      10. Коломийка Про ''Шнурок''
      11. Коломийка Святкова
      12. Бiлий Камiнь
      13. Чотири Пиявки
      14. Колись Було Лiто
      15. Там Соловейко Щебетав
      16. Ой, Що То За Шум

    Тривалість: 01:12:44
    Мова: українська
    Аудіо-кодек: FLAC
    Бітрейт: 939 кб/с
    Джерело: Диск із власної коллекції
    Додаткова інформація:
    Звіт EAC

    Exact Audio Copy V0.99 prebeta 5 from 4. May 2009

    Отчёт EAC об извлечении, выполненном 10. декабря 2010, 14:20

    Folk / Sex У Нащому Селi

    Дисковод: TSSTcorpDVD-ROM SH-D162D Adapter: 0 ID: 0

    Режим чтения : Достоверность
    Использование точного потока : Да
    Отключение кэша аудио : Да
    Использование указателей C2 : Нет

    Коррекция смещения при чтении : 6
    Способность читать области Lead-in и Lead-out : Нет
    Заполнение пропущенных сэмплов тишиной : Да
    Удаление блоков с тишиной в начале и конце : Нет
    При вычислениях CRC использовались нулевые сэмплы : Да
    Интерфейс : Встроенный Win32-интерфейс для Win NT/2000

    Выходной формат : Пользовательский кодировщик
    Выбранный битрейт : 768 kBit/s
    Качество : Высокий
    Добавление ID3-тэга : Нет
    Утилита сжатия : C:\Program Files\Exact Audio Copy\FLAC\FLAC.EXE
    Дополнительные параметры : -6 -V -T "ARTIST=%a" -T "TITLE=%t" -T "ALBUM=%g" -T "DATE=%y" -T "TRACKNUMBER=%n" -T "GENRE=%m" -T "COMMENT=%e" %s -o %d

    TOC извлечённого CD

    Трек | Старт | Длительность | Начальный сектор | Конечный сектор
    ---------------------------------------------------------------------
    1 | 0:00.00 | 6:04.70 | 0 | 27369
    2 | 6:04.70 | 5:06.20 | 27370 | 50339
    3 | 11:11.15 | 5:32.07 | 50340 | 75246
    4 | 16:43.22 | 4:20.49 | 75247 | 94795
    5 | 21:03.71 | 3:21.73 | 94796 | 109943
    6 | 24:25.69 | 4:21.51 | 109944 | 129569
    7 | 28:47.45 | 4:28.29 | 129570 | 149698
    8 | 33:15.74 | 4:36.36 | 149699 | 170434
    9 | 37:52.35 | 4:37.63 | 170435 | 191272
    10 | 42:30.23 | 4:17.17 | 191273 | 210564
    11 | 46:47.40 | 4:55.23 | 210565 | 232712
    12 | 51:42.63 | 5:07.23 | 232713 | 255760
    13 | 56:50.11 | 4:12.49 | 255761 | 274709
    14 | 61:02.60 | 4:49.04 | 274710 | 296388
    15 | 65:51.64 | 4:07.43 | 296389 | 314956
    16 | 69:59.32 | 2:44.62 | 314957 | 327318

    Характеристики диапазона извлечения и сообщения об ошибках

    Выбранный диапазон

    Имя файла C:\Documents and Settings\Женя\Рабочий стол\Новая папка (4)\Folk - Sex У Нащому Селi.wav

    Пиковый уровень 95.5 %
    Качество диапазона 100.0 %
    CRC копии 6355DA4C
    Копирование... OK

    Ошибок не произошло

    AccurateRip: сводка

    Трек 1 нет в базе данных
    Трек 2 нет в базе данных
    Трек 3 нет в базе данных
    Трек 4 нет в базе данных
    Трек 5 нет в базе данных
    Трек 6 нет в базе данных
    Трек 7 нет в базе данных
    Трек 8 нет в базе данных
    Трек 9 нет в базе данных
    Трек 10 нет в базе данных
    Трек 11 нет в базе данных
    Трек 12 нет в базе данных
    Трек 13 нет в базе данных
    Трек 14 нет в базе данных
    Трек 15 нет в базе данных
    Трек 16 нет в базе данных

    Ни одного трека нет в базе AccurateRip

    Конец отчёта
    Ця збірка недарма має віковий ценз. Але, якщо Ви вже дорослі діти, то Вам, мабуть, буде потішно послухати ці співанки. Адже, як зрозуміло вже із назви, головна ознака цієї збірки – скабрезність. Тож, якщо маєте прихильність до гострого слівця та солоного гумору – диск прийдеться до двору. Тож, будь ласка – солоні горішки для дам.
    Від себе, - такі собі веселі, жартівливі коломийки, можна сказати "український шансон".
    Повних сканів не просіть, вони будуть тільки в мене, з метою збереження авторського права на реліз!



Якщо Ви справді бажаєте підтримати українське - після прослуховування, якщо музика вам сподобалась, придбайте ліцензійний диск. Підтримаймо вітчизняних виконавців!


Срібний реліз (на рейтинг впливає 50% завантаженого)
 Трекер:    Зареєстрований   

Завантажити / скачати українську музику



відео для новачків



 Зареєстрований:   2010-12-10 15:10
 Розмір:   489 MB 
 Оцінка музики:   8.8/10 (Голосів: 12)
   
Nomad 
VIP


З нами з: 17.03.08
Востаннє: 08.02.12
Повідомлень: 513

2010-12-10 16:08  
Gienek_Lwow написано:
Видавець: Ліда

прямо так і вказано?
Gienek_Lwow написано:
[06:04] 01. Коломийка Весiльна

тривалість кожної пісні не обов'язкова
може ще додаси фото/скани розгортів буклету?

Додано через 6 хвилин 25 секунд:

Gienek_Lwow написано:
Повних сканів не просіть, вони будуть тільки в мене, з метою збереження авторського права на реліз!

не жлобись, робиш реліз то вже роби нормально Happy
ти ж не боїшся порушити авторські права виконавців, коли розповсюджуєш цю збірку інтернетом Happy

Gienek_Lwow 
VIP


З нами з: 28.09.10
Востаннє: 04.12.16
Повідомлень: 541

2010-12-10 16:42  
Nomad написано:
прямо так і вказано?


До речі купляв Львів на початку Городоцької, на впроти старого цуму, як магазин називається не зауважив, але на неоновій рекламі, щось на зразок до логотипу "Ліди", там зараз акція.
Nomad написано:
тривалість кожної пісні не обов'язкова

Трек лист робить AIMP2 автоматом.
Nomad написано:
може ще додаси фото/скани розгортів буклету?
Фото NOKIA 5530 - Клік на картинці

Nomad написано:

не жлобись, робиш реліз то вже роби нормально Happy
ти ж не боїшся порушити авторські права виконавців, коли розповсюджуєш цю збірку інтернетом Happy

прийде з роботи плимінник, сканер його, гадаю щось придумаєм. Wink (2)

Nomad 
VIP


З нами з: 17.03.08
Востаннє: 08.02.12
Повідомлень: 513

2010-12-10 16:49  
ну все, хай буде Happy
Gienek_Lwow 
VIP


З нами з: 28.09.10
Востаннє: 04.12.16
Повідомлень: 541

2010-12-10 17:04  
Nomad написано:
у все, хай буде Happy

Ok. Останній штрих

Диски не погано звучать, слухаю вже 2-й.
http://img831.imageshack.us/i/24102010127.jpg/
http://img837.imageshack.us/i/24102010118.jpg/
http://img819.imageshack.us/i/24102010120.jpg/

Vakula_S 
Новенький


З нами з: 16.03.10
Востаннє: 08.09.16
Повідомлень: 16

2015-02-14 10:24  
Виконавці: Не відомо (?)

Василь Мельникович.

Ваш часовий пояс: GMT + 2 Години

Нова тема   Відповісти