Завантажити та скачати торренти українською


Застрель їх / Shoot 'Em Up (2007) Blu-Ray Remux 1080p Ukr/Eng | Sub-Eng

Нові коментарі

Нова тема   Відповісти
Автор Повідомлення
Kuzmenko 
Відео Гуртом - команда HD
Відео Гуртом - команда HD


З нами з: 02.02.10
Востаннє: 03.12.16
Повідомлень: 144

2010-12-09 20:28  
Застрель їх / Shoot 'Em Up (2007) Blu-Ray Remux 1080p Ukr/Eng | Sub-Eng



Жанр: бойовик, комедія, трилер, кримінальний
Країна: США



Кіностудія / кінокомпанія: New Line Cinema
Режисер: Майкл Девіс /Michael Davis
Актори: Клайв Овен /Clive Owen/, Пол Джаматті /Paul Giamatti/, Моніка Беллуччі /Monica Bellucci/, Стівен Макхетті /Stephen McHattie/, Грег Брайк /Greg Bryk/, Деніель Пілон /Daniel Pilon/, Сідні Менде-Гібсон /Sidney Mende-Gibson

Сюжет:
Головний герой Сміт, який не може забути трагічних подій свого минулого, стає випадковим свідком спроби вбивства молодої вагітної жінки. Під час божевільної перестрілки з бандитами породілля гине, а головний герой вирішує врятувати немовля. У результаті він опиняється вплутаним в урядову змову. Для догляду і нагляду за малюком Сміт звертається до своєї давньої знайомої, повії Донне Кінтана. Разом вони намагаються врятувати малюка і розкрити цю змову, в яку, як з’ясовується, вплутаний один з найвпливовіших чиновників...


Тривалість: 01:26:32
Якість: Blu-Ray Remux 1080p
Відео:
кодек: VC-1
розмір кадру: 1920 х 1080
бітрейт: 24,7 Мб/с

Аудіо # 1:
мова: українська
переклад: багатоголосний
кодек: 5.1
бітрейт: 448 кб/с

Аудіо # 2:
мова: англійська
переклад: оригінал
кодек:
бітрейт: 1510 кб/с

Субтитри:
мова: англійська
тип: пререндерні
Скріншоти



MediaInfo

General
Complete name : C:\Downloads\Films\Shoot 'Em Up (2007) Blu-Ray Remux 1080p VC-1 UkrEng Sub-Eng [Hurtom].mkv
Format : Matroska
File size : 16.5 GiB
Duration : 1h 26mn
Overall bit rate : 27.2 Mbps
Movie name : Shoot Em Up (2007) 1080p VC-1 Ukr/Eng | Sub-Eng [Hurtom]
Encoded date : UTC 2010-12-09 20:44:18
Writing application : mkvmerge v4.3.0 ('Escape from the Island') збірка від Sep 5 2010 10:30:51
Writing library : libebml v1.0.0 + libmatroska v1.0.0

Video
ID : 1
Format : VC-1
Format profile : [email protected]
Codec ID : WVC1
Codec ID/Hint : Microsoft
Duration : 1h 26mn
Bit rate : 24.7 Mbps
Width : 1 920 pixels
Height : 1 080 pixels
Display aspect ratio : 16:9
Frame rate : 23.976 fps
Chroma subsampling : 4:2:0
Bit depth : 8 bits
Scan type : Progressive
Bits/(Pixel*Frame) : 0.498
Stream size : 15.0 GiB (91%)
Title : Shoot Em Up (2007) Blu-Ray Remux 1080p VC-1 Ukr/Eng | Sub-Eng [Hurtom]
Language : English

Audio #1
ID : 2
Format : AC-3
Format/Info : Audio Coding 3
Mode extension : CM (complete main)
Muxing mode : Header stripping
Codec ID : A_AC3
Duration : 1h 26mn
Bit rate mode : Constant
Bit rate : 448 Kbps
Channel(s) : 6 channels
Channel positions : Front: L C R, Side: L R, LFE
Sampling rate : 48.0 KHz
Bit depth : 16 bits
Stream size : 277 MiB (2%)
Title : 5.1 448bps Українська - багатоголосний, ТакТребаПродакшн
Language : Ukrainian

Audio #2
ID : 3
Format :
Format/Info : Digital Theater Systems
Muxing mode : Header stripping
Codec ID : A_DTS
Duration : 1h 26mn
Bit rate mode : Constant
Bit rate : 1 510 Kbps
Channel(s) : 6 channels
Channel positions : Front: L C R, Side: L R, LFE
Sampling rate : 48.0 KHz
Bit depth : 24 bits
Stream size : 934 MiB (6%)
Title : 5.1 1510kbps Англійська - оригінал
Language : English

Text
ID : 4
Format : UTF-8
Codec ID : S_TEXT/UTF8
Codec ID/Info : UTF-8 Plain Text
Language : English
Джерело: &
Особиста оцінка: 10 - без зайвих вагань рекомендую всім!


Золотий реліз (завантажене не впливає на рейтинг)
 Трекер:    Зареєстрований   

Завантажити / скачати фільм українською



відео для новачків



 Зареєстрований:   2010-12-20 10:31
 Розмір:   16.47 GB 
 Оцінка фільму:   9.5/10 (Голосів: 11)
   
Інші релізи
   Застрель їх / Shoot 'Em Up (2007) mini 720p hellforces  4 / 0   1.92 GB   2010-07-29 00:49 
   Застрель їх / Shoot 'Em Up (2007) Ukr/Eng | Sub Ukr/Eng _oles  4 / 1   1.73 GB   2010-02-03 16:53 
Віктор 
Відео Гуртом - субтитрування
Відео Гуртом - субтитрування


З нами з: 09.01.10
Востаннє: 08.12.16
Повідомлень: 8663

2010-12-15 18:13  
Kuzmenko написано:
бітрейт: 27,2 Мб/с

Це Remux

Kuzmenko 
Відео Гуртом - команда HD
Відео Гуртом - команда HD


З нами з: 02.02.10
Востаннє: 03.12.16
Повідомлень: 144

2010-12-20 09:22  
Змінив назву глав і торента + перезалив торент

з 1080p на Blu-Ray Remux 1080p

dtm 
Свій


З нами з: 02.01.09
Востаннє: 06.12.16
Повідомлень: 66

2011-02-13 11:57  
Станьте на роздачу будьласка
Kuzmenko 
Відео Гуртом - команда HD
Відео Гуртом - команда HD


З нами з: 02.02.10
Востаннє: 03.12.16
Повідомлень: 144

2011-02-13 11:58  
Встав на роздачу..... якщо мало швидкості - напиши....
Патріот_UA 
Поважний учасник


З нами з: 16.05.10
Востаннє: 26.10.14
Повідомлень: 184

2011-08-07 02:56  
Хтось на роздачу може стати?..
Andy2 
Новенький


З нами з: 16.06.09
Востаннє: 07.12.16
Повідомлень: 11

2011-09-09 11:18  
Хтось станьте, будьласка, на роздачу.
natashelka 
VIP


З нами з: 23.05.10
Востаннє: 08.12.16
Повідомлень: 441

2012-06-06 09:57  
Ось воно: нове покоління екшенів! Гарний відеоряд, зі спокусливими головними акторами, чудово дібраний саундтрек, сюжет? (сюжет вироджується, вже зараз стаючи мінімальним в цих нових фільмах наприклад у Sucker Punch 2011). Крутіше цих двох фільмів, плекаю на це надію, стане лише Mortal Kombat 2012. Не пропустіть! А цей - дивіться обов'язково, але обов'язково дивіться на великому телевізорі, що підтримує full HD, з 5.1 звуком, бо ці фільми створюються саме під такі телевізори. Прийміть нове, таким, яке воно є! Вилізіть зі своєї шкаралупи! 25/10/15 подивилася вдруге, і знову раджу вам
Ваш часовий пояс: GMT + 2 Години

Нова тема   Відповісти