Завантажити та скачати торренти українською


Освідчення / The Proposal (2009) 720p Ukr/Eng | Sub Ukr/Eng

Нові коментарі

Нова тема   Відповісти
Автор Повідомлення
Віктор 
Відео Гуртом - субтитрування
Відео Гуртом - субтитрування


З нами з: 09.01.10
Востаннє: 09.12.16
Повідомлень: 8664

2010-12-03 16:53  
Освідчення / The Proposal (2009) 720p Ukr/Eng | Sub Ukr/Eng



«Here comes the bribe...»


Жанр: комедія, драма, романтичний
Країна: США



Кіностудія / кінокомпанія: Touchstone Pictures, Mandeville Films, Kurtzman/Orci
Режисер: Енн Флетчер (Anne Fletcher)
Композитор: Аарон Зіґмен (Aaron Zigman)
Актори: Раян Рейнольдс (Ryan Reynolds), Сандра Баллок (Sandra Bullock), Мері Стінберґен (Mary Steenburgen), Крейґ Т. Нельсон (Craig T. Nelson), Бетті Вайт (Betty White), Деніс О’Гер (Denis O'Hare), Малін Акермен (Malin Akerman), Оскар Нун’єз (Oscar Nuñez), Аасіф Мендві (Aasif Mandvi), Майкл Ноурі (Michael Nouri) та інші.

Сюжет:
Романтична комедія від режисера "27 весіль" - деспотичний бос Марґарет Тейт у виконанні Сандри Баллок опиняється перед загрозою втратити візу США і бути депортованою назад до рідної Канади. Аби уникнути такого ганебного закінчення блискучої кар’єри вона пропонує своєму молодому помічникові-початківцю взяти фіктивний шлюб, ненавмисне даючи йому до рук владу над собою, як офіційною дружиною.
Номінації і цікаві факти

Золотий ґлобус, 2010 рік
Номінації (1):
* Найкраща жіноча роль (комедія або мюзикл) (Сандра Баллок)

Премія каналу «MTV», 2010 рік
Номінації (4):
* Найбожевільніший епізод
* Найкращий поцілунок (Сандра Баллок, Раян Рейнольдс)
* Найкраща комедійна роль (Раян Рейнольдс)
* Найкраща комедійна роль (Сандра Баллок)

Жорж, 2010 рік
Номінації (1):
* Найкраща іноземна комедія

Цікаві факти про фільм
• Головна жіноча роль спочатку була відведена Джулії Робертс, але актриса не погодилася піти на урізання свого звичайного гонорару, і була замінена на Сандру Баллок.
• Сандра Баллок грає канадку, яка виходить заміж за асистента-американця у виконанні Раяна Рейнольдса, щоб продовжити візу в США. У житті ж Рейнолдс з Канади, а Баллок - американка.
• Бюджет: $40 000 000
Про дублювання

Фільм дубльовано на «LeDoyen Studio» (2009р.)
На замовлення: Disney character voices international, inc.
Режисер дубляжу: Анна Пащенко
Автор перекладу і синхронного тексту: Тетяна Коробкова
Звукорежисер: Боб Шевяков
Координатор дубляжу: Мирослава Сидорук
Ролі дублювали:
Катерина Коновалова, Юрій Кудрявець, Неоніла Білецька, Юрій Гребельник, Наталя Поліщук, Дмитро Вікулов, Валерій Легін й інші.
MediaInfo

Код:
General
Complete name                    : D:\Films HD\The Proposal (2009) [Ukr, Eng] 720p [Hurtom, HDCLUB].mkv
Format                           : Matroska
File size                        : 4.30 GiB
Duration                         : 1h 47mn
Overall bit rate                 : 5 706 Kbps
Movie name                       : The Proposal (2009) - Release for HDClub & HURTOM by HANSMER
Encoded date                     : UTC 2010-12-03 10:49:30
Writing application              : mkvmerge v4.2.0 ('No Talking') built on Jul 28 2010 18:38:23
Writing library                  : libebml v1.0.0 + libmatroska v1.0.0

Video
ID                               : 1
Format                           : AVC
Format/Info                      : Advanced Video Codec
Format profile                   : [email protected]
Format settings, CABAC           : Yes
Format settings, ReFrames        : 10 frames
Muxing mode                      : Container [email protected]
Codec ID                         : V_MPEG4/ISO/AVC
Duration                         : 1h 47mn
Bit rate                         : 4 233 Kbps
Width                            : 1 280 pixels
Height                           : 534 pixels
Display aspect ratio             : 2.35:1
Frame rate                       : 23.976 fps
Color space                      : YUV
Chroma subsampling               : 4:2:0
Bit depth                        : 8 bits
Scan type                        : Progressive
Bits/(Pixel*Frame)               : 0.258
Stream size                      : 3.10 GiB (72%)
Title                            : Release for HDClub & HURTOM by HANSMER
Writing library                  : core 77 r1292M e381f6d
Encoding settings                : cabac=1 / ref=10 / deblock=1:-3:-3 / analyse=0x3:0x113 / me=umh / subme=9 / psy=1 / psy_rd=1.0:0.0 / mixed_ref=1 / me_range=24 / chroma_me=1 / trellis=2 / 8x8dct=1 / cqm=0 / deadzone=21,11 / chroma_qp_offset=-2 / threads=6 / nr=0 / decimate=1 / mbaff=0 / constrained_intra=0 / bframes=6 / b_pyramid=0 / b_adapt=2 / b_bias=0 / direct=3 / wpredb=1 / keyint=250 / keyint_min=25 / scenecut=40 / rc_lookahead=60 / rc=2pass / mbtree=1 / bitrate=4233 / ratetol=1.0 / qcomp=0.60 / qpmin=10 / qpmax=51 / qpstep=4 / cplxblur=20.0 / qblur=0.5 / ip_ratio=1.40 / aq=1:0.60

Audio #1
ID                               : 2
Format                           : AC-3
Format/Info                      : Audio Coding 3
Mode extension                   : CM (complete main)
Codec ID                         : A_AC3
Duration                         : 1h 47mn
Bit rate mode                    : Constant
Bit rate                         : 640 Kbps
Channel(s)                       : 6 channels
Channel positions                : Front: L C R, Side: L R, LFE
Sampling rate                    : 48.0 KHz
Stream size                      : 493 MiB (11%)
Title                            : 5.1 640 Kbps Дубляж - LeDoyen Studio
Language                         : Ukrainian

Audio #2
ID                               : 3
Format                           : AC-3
Format/Info                      : Audio Coding 3
Mode extension                   : CM (complete main)
Codec ID                         : A_AC3
Duration                         : 1h 47mn
Bit rate mode                    : Constant
Bit rate                         : 640 Kbps
Channel(s)                       : 6 channels
Channel positions                : Front: L C R, Side: L R, LFE
Sampling rate                    : 48.0 KHz
Stream size                      : 493 MiB (11%)
Title                            : 5.1 640 Kbps

Audio #3
ID                               : 4
Format                           : AC-3
Format/Info                      : Audio Coding 3
Mode extension                   : CM (complete main)
Codec ID                         : A_AC3
Duration                         : 1h 47mn
Bit rate mode                    : Constant
Bit rate                         : 192 Kbps
Channel(s)                       : 2 channels
Channel positions                : Front: L R
Sampling rate                    : 48.0 KHz
Stream size                      : 148 MiB (3%)
Title                            : 2.0 192 Kbps - Commentary by director Anne Fletcher and writer Peter Chiarelli

Text #1
ID                               : 5
Format                           : UTF-8
Codec ID                         : S_TEXT/UTF8
Codec ID/Info                    : UTF-8 Plain Text
Language                         : Ukrainian

Text #2
ID                               : 6
Format                           : UTF-8
Codec ID                         : S_TEXT/UTF8
Codec ID/Info                    : UTF-8 Plain Text
Title                            : Forced
Language                         : Ukrainian

Text #3
ID                               : 7
Format                           : UTF-8
Codec ID                         : S_TEXT/UTF8
Codec ID/Info                    : UTF-8 Plain Text
Title                            : Commentary by director Anne Fletcher and writer Peter Chiarelli
Language                         : Ukrainian

Text #4
ID                               : 8
Format                           : UTF-8
Codec ID                         : S_TEXT/UTF8
Codec ID/Info                    : UTF-8 Plain Text

Menu
00:00:00.097                     : en:00:00:00.097
Релізи та інформація про озвучення/дублювання

720p Ukr/Eng | Sub Ukr/Eng (4.3 GB) — професійний дубльований LeDoyen Studio ліцензія Blu-Ray (+ по ТЕТ)

Фільм дубльовано LeDoyen Studio на замовлення Disney Character Voices International Inc.
Автор перекладу і синхронного тексту: Тетяна Коробкова (Манхеттен)
Режисер дубляжу: Анна Пащенко
Звукорежисер: Боб Шевяков
Координатор дубляжу: Мирослава Сидорук
Мікс-студія: Shepperton International
Creative supervisor: Mariusz Arno Jaworowski
Ролі дублювали: Сандра Баллок/Марґарет — Катерина Коновалова, Раян Рейнольдс/Ендрю — Юрій Кудрявець, Бетті Вайт/Бабуся — Неоніла Білецька, Деніс О’Гара/Гілбертсон — Юрій Гребельник, Аасіф Мандві/Боб — Дмитро Завадський, Мері Стінберґен/Ґрейс Пакстон — Наталя Поліщук, Оскар Нунез/Рамон — Дмитро Вікулов, Крейґ. Т Нельсон/Джо Пакстон — Валерій Легін, Наталя Романько-Кисельова, Олександр Бондаренко, Євген Пашин, Майкл Мозлі/Чак — Юрій Ребрик та інші.
Тривалість: 01:47:47
Якість: 720р ріп від HANSMER
Відео:
кодек:
розмір кадру: 1280x534
бітрейт: 4233 кб/с
частота кадрів: 23.976 fps

Аудіо # 1:
мова: українська
переклад: професійний дубльований LeDoyen Studio| Ліцензія Blu-ray
кодек: 5.1
бітрейт: 640 кб/с

Аудіо # 2 :
мова: анґлійська
переклад: ориґінал
кодек: 5.1
бітрейт: 640 кб/с

Аудіо # 3:
мова: анґлійська (коментарі режисера і сценариста)
кодек: 2.0
бітрейт: 192 кб/с

Субтитри # 1-3:
мова: українська (повні, форсовані і до коментарів)
тип: програмні (м’які)
формат: *.srt

Субтитри # 4:
мова: анґлійська
тип: програмні (м’які)
формат: *.srt

Скріншоти:



Джерело:
Особиста оцінка: 7


 Трекер:    Зареєстрований   

Завантажити / скачати фільм українською



відео для новачків



 Зареєстрований:   2010-12-03 16:53
 Розмір:   4.3 GB 
 Оцінка фільму:   9.7/10 (Голосів: 46)
   
Інші релізи
   Освідчення / The Proposal (2009) 720p-mini Ukr/Eng | Sub Ukr/Eng BASTERD-94  0 / 0   2.29 GB   2016-02-14 20:30 
   Освідчення / The Proposal (2009) Ukr/Eng antik_2008  8 / 0   1.75 GB   2009-11-11 03:05 
   Освідчення / The Proposal (2009) Ukr/Eng | Ліцензія cjieiioi  0 / 0   2 GB   2009-10-14 05:45 
   Освідчення / The Proposal (2009) 1080p lufa  2 / 0   7.71 GB   2009-10-12 15:17 
karvai0 
Відео Гуртом - запис з ТБ
Відео Гуртом - запис з ТБ


З нами з: 18.01.10
Востаннє: 09.09.16
Повідомлень: 3686

2010-12-03 19:35  
класний фiльм. рекомендую...дякую
Віктор 
Відео Гуртом - субтитрування
Відео Гуртом - субтитрування


З нами з: 09.01.10
Востаннє: 09.12.16
Повідомлень: 8664

2010-12-03 19:46  
karvai0 написано:
класний фiльм. рекомендую...дякую

будь ласка Rolleyes (4)

LeSSeR09 
Новенький


З нами з: 17.11.09
Востаннє: 27.11.16
Повідомлень: 7

2010-12-11 17:25  
В деяких моментах фільму картинка псується.
Це дійсно так чи в мене плеєр глючить?

Віктор 
Відео Гуртом - субтитрування
Відео Гуртом - субтитрування


З нами з: 09.01.10
Востаннє: 09.12.16
Повідомлень: 8664

2010-12-11 17:39  
LeSSeR09 написано:

В деяких моментах фільму картинка псується.
Це дійсно так чи в мене плеєр глючить?

Точний час вкажіть і яким плеєром дивитесь?

LeSSeR09 
Новенький


З нами з: 17.11.09
Востаннє: 27.11.16
Повідомлень: 7

2010-12-12 10:37  
Цитата:
Точний час вкажіть і яким плеєром дивитесь?

Gom player - наприклад 2хв 27с картинка псується
Light Alloy - все в порядку.
Питання знято ). Проблема дійсно в мене.

Hulk1987 
Модератор відео


З нами з: 14.02.09
Востаннє: 10.10.16
Повідомлень: 1306

2011-04-03 21:08  
Класна комедія. Сандра, як завжди, на висоті!
BGD-2012 
Свій


З нами з: 06.05.12
Востаннє: 07.08.16
Повідомлень: 77

2016-01-13 22:21  
Чудова романтична комедія.
Ваш часовий пояс: GMT + 2 Години

Нова тема   Відповісти