Завантажити та скачати торренти українською


Фактично Самі - Lo-Fi TRавми (2005) [FLAC] | Alternative / Trip-Hop

Нові коментарі

Нова тема   Відповісти
Останній раз роздавалося romkonikifor (2016-12-05)
Автор Повідомлення
ssTAss 
Модератор музики


З нами з: 05.07.08
Востаннє: 06.12.16
Повідомлень: 10946

2010-11-26 23:50  
Фактично Самі - Lo-Fi TRавми (2005) [FLAC] | Alternative / Trip-Hop



Стиль: Alternative, Trip-Hop
Країна, місто: Україна, Івано-Франківськ - Київ
Сайти: Офіційний сайт
Видавець: СПД Мельничук
Виконавці:
Вокал: Ірена Карпа, Олександр Положинський, Анатолій Ульянов, Олександр Сидоренко, Генрі Мюртинен
Хор: Сергій Твардовський, Анатолій Федишин, Костянтин Ящур, В’ячеслав Чуйко, Василь Голуб, Лев Сухий, Лев Журавльов, Сергій Лисий, Алла Доброва, Наталія Ліпко, Галина Малигіна, Наталія Кропивницька, Анастасія Ящур, Ірина Левицька, Ксенія Соколовська, Марія Квич
Скрипки: Данило Косович, Дмитро Цимбалюк, Вікторія Лукашевич. Марія Серебрякова, Ірина Коваль, Валентина Мицак, Марія Кірчева, Борис Кащеєв, Ірена Цолль
Альти: Семен Лєбєдєв, Олександра Панкрашина, Роман Бойчук, Ніна Васильченко
Віолончелі: Євгенія Смолянінова, Євгенія Дячук, Ольга Наливайко
Валторни: Олександр Леонович, Іван Волошинюк
Тромбон: Анджей Пшегодський
Арфа: Ольга Пільсман
Мандоліна: Йозеф Лотоцький
Сопілка, саксофони: Михайло Сарана
Барабани: Віктор Корженко
Бас, фортепіано, електропіано, електроорган, муґ-синтезатор, програмування: Артур Данієлян
Гітара, перкусія, програмування, мелотрон: Олег Артим
Муґ-синтезатор: Андрій Благун
Скретчування: Валентин Матіюк
Аранжування: Олег Артим, Артур Данієлян
Аранжування струнних і духових: Артур Данієлян
Саунд-продюсер: Олег Артим
Директор: Вадим Мельничук
Фото: Сергій Кузнєцов
Малюнок: Ярема Стецик (Перкалаба)
Пісні:
    01. Lo-Fi Universe
    02. [email protected] bpm
    03. Вродливе м'ясо
    04. Обернися
    05. Довго в рай
    06. Дивина
    07. Letter2бабуля
    08. Діброва
    09. Залишай
    10. Мій перший мармуровий бог (спи собі сам)
    11. Русальчина
    12. Мій другий мармуровий бог (сарана)
    13. Небо
    14. Мій третій мармуровий бог + по всіх аби mc rmx (прихований трек)
    15. пауза
    16. Очі твої
log
Exact Audio Copy V0.99 prebeta 4 from 23. January 2008

EAC extraction logfile from 5. July 2009, 12:26

Фактично Самі / Lo-Fi TRaвми

Used drive : HL-DT-STDVD-RAM GSA-H58N Adapter: 0 ID: 0

Read mode : Secure
Utilize accurate stream : Yes
Defeat audio cache : Yes
Make use of C2 pointers : No

Read offset correction : 102
Overread into Lead-In and Lead-Out : No
Fill up missing offset samples with silence : Yes
Delete leading and trailing silent blocks : No
Null samples used in CRC calculations : Yes
Used interface : Native Win32 interface for Win NT & 2000
Gap handling : Appended to previous track

Used output format : User Defined Encoder
Selected bitrate : 1024 kBit/s
Quality : High
Add ID3 tag : No
Command line compressor : C:\Program Files\FLAC\flac.exe
Additional command line options : -8 -V -T "ARTIST=%a" -T "TITLE=%t" -T "ALBUM=%g" -T "DATE=%y" -T "TRACKNUMBER=%n" -T "GENRE=%m" -T "COMMENT=EAC FLAC -8" %s

TOC of the extracted CD

Track | Start | Length | Start sector | End sector
---------------------------------------------------------
1 | 0:00.00 | 1:57.00 | 0 | 8774
2 | 1:57.00 | 4:36.64 | 8775 | 29538
3 | 6:33.64 | 4:03.30 | 29539 | 47793
4 | 10:37.19 | 4:55.62 | 47794 | 69980
5 | 15:33.06 | 4:58.48 | 69981 | 92378
6 | 20:31.54 | 3:20.41 | 92379 | 107419
7 | 23:52.20 | 4:45.05 | 107420 | 128799
8 | 28:37.25 | 4:05.35 | 128800 | 147209
9 | 32:42.60 | 3:49.12 | 147210 | 164396
10 | 36:31.72 | 6:54.73 | 164397 | 195519
11 | 43:26.70 | 5:10.57 | 195520 | 218826
12 | 48:37.52 | 4:42.37 | 218827 | 240013
13 | 53:20.14 | 4:21.24 | 240014 | 259612
14 | 57:41.38 | 11:55.53 | 259613 | 313290
15 | 69:37.16 | 0:22.59 | 313291 | 314999
16 | 70:00.00 | 3:12.09 | 315000 | 329408

Track 1

Filename D:\Фактично Самі - Lo Fi TRавми [2005] -2002\01 - Lo-Fi Universe.wav

Pre-gap length 0:00:02.00

Peak level 62.4 %
Track quality 100.0 %
Test CRC AE1319C2
Copy CRC AE1319C2
Track not present in AccurateRip database
Copy OK

Track 2

Filename D:\Фактично Самі - Lo Fi TRавми [2005] -2002\02 - [email protected] bpm.wav

Peak level 97.7 %
Track quality 100.0 %
Test CRC 453B2E32
Copy CRC 453B2E32
Track not present in AccurateRip database
Copy OK

Track 3

Filename D:\Фактично Самі - Lo Fi TRавми [2005] -2002\03 - Вродливе м'ясо.wav

Peak level 97.7 %
Track quality 99.9 %
Test CRC 3FF5F13C
Copy CRC 3FF5F13C
Track not present in AccurateRip database
Copy OK

Track 4

Filename D:\Фактично Самі - Lo Fi TRавми [2005] -2002\04 - Обернися.wav

Peak level 97.7 %
Track quality 100.0 %
Test CRC BC67579A
Copy CRC BC67579A
Track not present in AccurateRip database
Copy OK

Track 5

Filename D:\Фактично Самі - Lo Fi TRавми [2005] -2002\05 - Довго в рай.wav

Peak level 97.7 %
Track quality 100.0 %
Test CRC C3C61FE6
Copy CRC C3C61FE6
Track not present in AccurateRip database
Copy OK

Track 6

Filename D:\Фактично Самі - Lo Fi TRавми [2005] -2002\06 - Дивина.wav

Pre-gap length 0:00:53.00

Peak level 97.7 %
Track quality 99.9 %
Test CRC BB939136
Copy CRC BB939136
Track not present in AccurateRip database
Copy OK

Track 7

Filename D:\Фактично Самі - Lo Fi TRавми [2005] -2002\07 - Letter 2 бабуня.wav

Peak level 97.7 %
Track quality 100.0 %
Test CRC CCA2CFBF
Copy CRC CCA2CFBF
Track not present in AccurateRip database
Copy OK

Track 8

Filename D:\Фактично Самі - Lo Fi TRавми [2005] -2002\08 - Діброва.wav

Peak level 97.7 %
Track quality 100.0 %
Test CRC E6A4807D
Copy CRC E6A4807D
Track not present in AccurateRip database
Copy OK

Track 9

Filename D:\Фактично Самі - Lo Fi TRавми [2005] -2002\09 - Залишай.wav

Peak level 97.7 %
Track quality 100.0 %
Test CRC 0C9529D6
Copy CRC 0C9529D6
Track not present in AccurateRip database
Copy OK

Track 10

Filename D:\Фактично Самі - Lo Fi TRавми [2005] -2002\10 - Мій перший мармуровий бог (спи собі сам).wav

Peak level 97.7 %
Track quality 100.0 %
Test CRC CB6F6D76
Copy CRC CB6F6D76
Track not present in AccurateRip database
Copy OK

Track 11

Filename D:\Фактично Самі - Lo Fi TRавми [2005] -2002\11 - Русальчина.wav

Pre-gap length 0:01:16.70

Peak level 95.8 %
Track quality 100.0 %
Test CRC D652093E
Copy CRC D652093E
Track not present in AccurateRip database
Copy OK

Track 12

Filename D:\Фактично Самі - Lo Fi TRавми [2005] -2002\12 - Мій другий мармуровий бог (сарана).wav

Peak level 97.7 %
Track quality 100.0 %
Test CRC FABB2BFE
Copy CRC FABB2BFE
Track not present in AccurateRip database
Copy OK

Track 13

Filename D:\Фактично Самі - Lo Fi TRавми [2005] -2002\13 - Небо.wav

Pre-gap length 0:00:30.22

Peak level 97.7 %
Track quality 99.9 %
Test CRC 39FE8A3E
Copy CRC 39FE8A3E
Track not present in AccurateRip database
Copy OK

Track 14

Filename D:\Фактично Самі - Lo Fi TRавми [2005] -2002\14 - Мій 3-й мармуровий бог (reprise) + По всіх або mc rmx.wav

Pre-gap length 0:00:52.94

Peak level 97.7 %
Track quality 100.0 %
Test CRC ACC9913D
Copy CRC ACC9913D
Track not present in AccurateRip database
Copy OK

Track 15

Filename D:\Фактично Самі - Lo Fi TRавми [2005] -2002\15 - Пауза.wav

Peak level 94.8 %
Track quality 100.0 %
Test CRC 898D6E44
Copy CRC 898D6E44
Track not present in AccurateRip database
Copy OK

Track 16

Filename D:\Фактично Самі - Lo Fi TRавми [2005] -2002\16 - Очі твої.wav

Peak level 97.7 %
Track quality 100.0 %
Test CRC 89B6DD3A
Copy CRC 89B6DD3A
Track not present in AccurateRip database
Copy OK

None of the tracks are present in the AccurateRip database

No errors occurred

End of status report
audiochecker
AUDIOCHECKER v2.0 beta (build 457) - by Dester - [email protected]
~~~~~~~~~~~~~~~~~~~~~~~~~~~~~~~~~~
-=== НЕ РЕДАКТИРУЙТЕ ЭТОТ ФАЙЛ! ===-

Путь: ...\Фактично Самі - Lo Fi TRавми (2005)

01 -=- 01 - Lo-Fi Universe.flac -=- CDDA (100%)
02 -=- 02 - [email protected] bpm.flac -=- CDDA (100%)
03 -=- 03 - Вродливе м'ясо.flac -=- CDDA (100%)
04 -=- 04 - Обернися.flac -=- CDDA (100%)
05 -=- 05 - Довго в рай.flac -=- CDDA (100%)
06 -=- 06 - Дивина.flac -=- CDDA (100%)
07 -=- 07 - Letter 2 бабуня.flac -=- CDDA (100%)
08 -=- 08 - Діброва.flac -=- CDDA (100%)
09 -=- 09 - Залишай.flac -=- CDDA (100%)
10 -=- 10 - Мій перший мармуровий бог (спи собі сам).flac -=- CDDA (100%)
11 -=- 11 - Русальчина.flac -=- CDDA (100%)
12 -=- 12 - Мій другий мармуровий бог (сарана).flac -=- CDDA (100%)
13 -=- 13 - Небо.flac -=- CDDA (100%)
14 -=- 14 - Мій 3-й мармуровий бог (reprise) + По всіх або mc rmx.flac -=- CDDA (100%)
15 -=- 15 - Пауза.flac -=- CDDA (100%)
16 -=- 16 - Очі твої.flac -=- CDDA (100%)

Сводка 100,00% CDDA

183523172
Тривалість: 01:13:12
Мова: українська, у деяких треках (5, 10, 13) англійська балачка, у першому — іспанська (?), російська, французька, шведська (?), ше якісь))... ВІДСУТНЯ разом з музикою та іншими звуками (15)
Аудіо-кодек: FLAC
Бітрейт: 783 - 1013 кб/с
Джерело: інтернет (дякую jinotot-у за скани буклету та обкладинок)
Додаткова інформація:
Інколи – ні, просто ніколи не знаєш, яким буде наступний крок цього гурту – справжня альтернатива. Адже альтернатива просто означає відкриту можливість вибору, просто необмежену кількість можливостей. І "Фактично самі" досі намагаються використовувати цю необмежену кількість якомога більш повно. Намагаються вдало – однозначно. Бо, так чи інакше, їхня творчість привертає увагу – в тому числі, і завдяки непередбачуваності. Зрозуміло, що не всіх цікавлять ймовірності. Не всіх цікавлять і спроби окреслити щось масове за допомогою світла настільки ж яскравого, наскільки й поживного для глибоких тіней. Але гра тіней на білому тлі – чи не єдиний спосіб хоч щось показати так, аби стало просто. Як і було від початку. Втім, далеко не всіх цікавить Ч/Б. Може, дарма, може – добре. Як на мене, справжня чорно-біла естетика завжди містить всі вісім кольорів веселки, і безліч відтінків. Побачити – не обов’язково. Відчути – невідворотно.
Антон Йожик Лейба



Якщо Ви справді бажаєте підтримати українське - після прослуховування, якщо музика вам сподобалась,
придбайте ліцензійний диск.
Підтримаймо вітчизняних виконавців!


 Трекер:    Зареєстрований   

Завантажити / скачати українську музику



відео для новачків



 Зареєстрований:   2010-11-27 00:45
 Розмір:   493 MB 
 Оцінка музики:   7.5/10 (Голосів: 11)
   
Lev 
VIP


З нами з: 14.10.09
Востаннє: 05.12.16
Повідомлень: 1819

2010-11-27 03:25  
дяка за скани
Lev 
VIP


З нами з: 14.10.09
Востаннє: 05.12.16
Повідомлень: 1819

2011-09-14 01:50  
а курвукамбек хтось хоче в якості?
Skiff 
музика
музика


З нами з: 12.11.07
Востаннє: 05.12.16
Повідомлень: 3051

2011-09-14 13:22  
А є? Wide grin
Звісно хоче. Wink (1)

Lev 
VIP


З нами з: 14.10.09
Востаннє: 05.12.16
Повідомлень: 1819

2011-09-14 14:57  
Skiff написано:

А є?
Звісно хоче. 


Звісно, в мене є Happy Свого часу диск одразу купив як альбом вийшов.
Але готуйтесь сідувати, бо в мене його довго роздавати не вийде - на вінті місця обмаль.

ssTAss 
Модератор музики


З нами з: 05.07.08
Востаннє: 06.12.16
Повідомлень: 10946

2011-09-14 22:38  
Skiff написано:
А є?

і в мене є Tongue out (1)
тра тіко скани

Ваш часовий пояс: GMT + 2 Години

Нова тема   Відповісти