Завантажити та скачати торренти українською


Оселя зла: Потойбічне життя / Resident Evil: Afterlife (2010)

Нові коментарі

Нова тема   Відповісти
Останній раз роздавалося Oleg202020 (2016-12-04)
Автор Повідомлення
yurchukk 
Новенький


З нами з: 18.11.10
Востаннє: 07.03.13
Повідомлень: 6

2010-11-26 08:19  
Оселя зла: Потойбічне життя / Resident Evil: Afterlife (2010)



Жанр: Триллер, Бойовик, Фантастика, Жахи
Країна: Німеччина, Великобританія, США



Кіностудія / кінокомпанія: Constantin Film Produktion
Режисер: Пол У. С. Андерсон
Актори: Мілла Йовович , Вентворт Міллер , Елі Лартер , Шоун Робертс , Кім Коутс , Спенсер Лок , Борис Коджо

Сюжет:
Еліс продовжує свій шлях у світі, ураженому вірусною інфекцією, що перетворює людей в живих мерців. Героїня шукає живих людей, щоб вивести їх в безпечне місце. Її смертельна битва з корпорацією Амбрелла виходить на новий рівень, коли вона раптом одержує несподівану допомогу від старого друга. Він обіцяє привести Еліс у безпечну зону в Лос-Анджелесі, але як тільки вони потрапляють до міста, то бачать тисячі заражених і опиняються у смертельній пастці...


Тривалість: 01:36:52
Якість:
Відео:
кодек:
розмір кадру: 720 х 304
бітрейт: 1694 кб/с

Аудіо:
мова: українська
переклад: професійний дубльований
кодек: 5.1
бітрейт: 448 кб/с

    Media Info
    General
    Complete name : Obitel.Zla.IV.Zhizn.Posle.Smerti.2010.UKR....avi
    Format : AVI
    Format/Info : Audio Video Interleave
    File size : 1.46 GiB
    Duration : 1h 36mn
    Overall bit rate : 2 151 Kbps
    Writing application : VirtualDubMod 1.5.10.2 (build 2540/release)
    Writing library : VirtualDubMod build 2540/release

    Video
    ID : 0
    Format : MPEG-4 Visual
    Format profile : Advanced [email protected]
    Format settings, BVOP : Yes
    Format settings, QPel : No
    Format settings, GMC : No warppoints
    Format settings, Matrix : Default (MPEG)
    Codec ID :
    Codec ID/Hint :
    Duration : 1h 36mn
    Bit rate : 1 694 Kbps
    Width : 720 pixels
    Height : 304 pixels
    Display aspect ratio : 2.35:1
    Frame rate : 23.976 fps
    Color space : YUV
    Chroma subsampling : 4:2:0
    Bit depth : 8 bits
    Scan type : Progressive
    Bits/(Pixel*Frame) : 0.323
    Stream size : 1.15 GiB (79%)
    Writing library : 1.2.1 (UTC 2008-12-04)

    Audio
    ID : 1
    Format : AC-3
    Format/Info : Audio Coding 3
    Mode extension : CM (complete main)
    Codec ID : 2000
    Duration : 1h 36mn
    Bit rate mode : Constant
    Bit rate : 448 Kbps
    Channel(s) : 6 channels
    Channel positions : Front: L C R, Side: L R, LFE
    Sampling rate : 48.0 KHz
    Bit depth : 16 bits
    Stream size : 310 MiB (21%)
    Alignment : Split accross interleaves
    Interleave, duration : 42 ms (1.00 video frame)
    Interleave, preload duration : 500 ms


Джерело озвучення:


Скріншоти:

туц
Джерело:
Особиста оцінка: 7 - моїй подрузі не сподобалося


 Трекер:    Зареєстрований   

Завантажити / скачати фільм українською



відео для новачків



 Зареєстрований:   2010-11-26 08:19
 Розмір:   1.46 GB 
 Оцінка фільму:   9.6/10 (Голосів: 33)
   
Vetal-XL 
VIP


З нами з: 31.03.10
Востаннє: 05.12.16
Повідомлень: 837

2010-11-26 16:34  
Мега фільм, дякую авторуHappy!
yurchukk 
Новенький


З нами з: 18.11.10
Востаннє: 07.03.13
Повідомлень: 6

2010-11-26 17:12  
На здоров'я !
Arhi 
VIP


З нами з: 02.12.07
Востаннє: 13.05.16
Повідомлень: 250

2010-11-27 15:16  
Фільм на вразив, чимось нагадував "трешовий" фільм, я вже й не згадую про те що на гру схожий тільки кількома монстриками...
Mihasko008 
Свій


З нами з: 27.07.10
Востаннє: 08.09.16
Повідомлень: 52

2010-11-27 15:26  
а мені сподобався фільм
Kazinak 
Частий відвідувач


З нами з: 22.03.10
Востаннє: 01.12.16
Повідомлень: 37

2010-11-27 15:46  
Фільм тупорилий, я заснув на середині Wink (2) Перша частина найкраща...
Skifstriy 
Частий відвідувач


З нами з: 13.12.09
Востаннє: 04.12.16
Повідомлень: 47

2010-11-27 17:58  
раджу не витрачати час на беззмістовну туфту, і дешеве мавпування відомих фільмів
The_Marlboro 
Відео Гуртом - субтитрування
Відео Гуртом - субтитрування


З нами з: 23.05.10
Востаннє: 05.12.16
Повідомлень: 2854

2011-02-01 13:28  
Можна звук окремо?
gig_Panas 
Відео Гуртом - запис з ТБ
Відео Гуртом - запис з ТБ


З нами з: 26.05.10
Востаннє: 04.12.16
Повідомлень: 497

2012-09-02 14:46  
красно дякую.
чудове продовження серіалу..
з нетерпінням чекаю на 5 частину

don pedro 
Попереджень: 1
Попереджень: 1 


З нами з: 29.06.11
Востаннє: 05.12.16
Повідомлень: 8735

2012-09-02 17:03  
Дуже сподобались ряд моментів та музика. Цілісного сюжету немає, але ж це серіал про зомбі Happy.
dest05 
Новенький


З нами з: 26.03.09
Востаннє: 03.12.16
Повідомлень: 6

2012-11-19 17:15  
Фільм не сподобався, порівняно з ним 1-3 частини виглядають набагато краще, кінцівка взагалі незрозуміла
Grishazahid 
Свій


З нами з: 27.02.12
Востаннє: 05.12.16
Повідомлень: 59

2012-11-21 11:29  
2 частина найкраща, а потім вони ідуть чимраз гірші і гірші Sad (1)
Xshot 
VIP


З нами з: 22.09.09
Востаннє: 27.11.16
Повідомлень: 1535

2013-08-09 13:21  
Виправте опис

із цього:
Цитата:
Переклад і озвучення виконано:


на це:
Код:

[b]Джерело озвучення:[/b]
[img]http://toloka.to/img/dubbing/Оригінальний_DVD.gif[/img]

Тому що насправді на DVD вийшло Dolby Digital 5.1 (448 кбіт/с)
А на Blu-Ray: Dolby Digital 2.0 (192 кбіт/с)

Ваш часовий пояс: GMT + 2 Години

Нова тема   Відповісти