Завантажити та скачати торренти українською


Фактично самі - Фактично самі 1995-2004 (2004) [FLAC] | Alternative

Нові коментарі

Нова тема   Відповісти
Автор Повідомлення
ssTAss 
Модератор музики


З нами з: 05.07.08
Востаннє: 09.12.16
Повідомлень: 10949

2010-11-25 00:56  
Фактично самі - Фактично самі 1995-2004 (2004) [FLAC] | Alternative



Стиль: Alternative Rock
Країна, місто: Україна, Івано-Франківськ - Київ
Сайти: Офіційний сайт
Видавець: Атлантик
Виконавці:
Ірена КАРПА – вокал
Олег АРТИМ – електро гітара, програмування
Артур ДАНІЄЛЯН – бас гітара, програмування
Пісні:
    01. любе лібідо (kurva cum back, 2004)
    02. Кіріян (kurva cum back, 2004)
    03. небо (Lo-Fi TRaums, 2003)
    04. залишай (Lo-Fi TRaums, 2003)
    05. дивина (Lo-Fi TRaums, 2003)
    06. серця (космічний вакуум, 2002)
    07. прорив у космічних відносинах (космічний вакуум, 2002)
    08. я знаю код (космічний вакуум, 2002)
    09. в твоїх обіймах (Б.П.П., 2001)
    10. зима (Б.П.П., 2001)
    11. Повітря (1998)
    12. жовті танці (D.дькова гра, 1999)
    13. по дорозі (D.дькова гра, 1999)
    14. тугу тугу (1998)
    15. дивом дивуюсь (1998)
    16. Жінка сокира рубає(1998)
    17. good bye (запис з концерту на дискотеці "ура", 1997)
    18. grow old (1995)
log
Exact Audio Copy V0.99 prebeta 5 from 4. May 2009

Отчёт EAC об извлечении, выполненном 15. июля 2009, 3:32

Фактично Самі / Фактично Самі

Дисковод: HL-DT-STDVDRAM GH20NS10 Adapter: 3 ID: 1

Режим чтения : Достоверность
Использование точного потока : Да
Отключение кэша аудио : Да
Использование указателей C2 : Нет

Коррекция смещения при чтении : 667
Способность читать области Lead-in и Lead-out : Нет
Заполнение пропущенных сэмплов тишиной : Да
Удаление блоков с тишиной в начале и конце : Нет
При вычислениях CRC использовались нулевые сэмплы : Да
Интерфейс : Встроенный Win32-интерфейс для Win NT/2000
Обработка зазоров : Добавлено к предыдущему треку

Выходной формат : Пользовательский кодировщик
Выбранный битрейт : 128 kBit/s
Качество : Высокий
Добавление ID3-тэга : Нет
Утилита сжатия : C:\Program Files\FLAC\flac.exe
Дополнительные параметры : -8 -V -T "ARTIST=%a" -T "TITLE=%t" -T "ALBUM=%g" -T "DATE=%y" -T "TRACKNUMBER=%n" -T "GENRE=%m" -T "COMMENT=EAC FLAC -8" %s

TOC извлечённого CD

Трек | Старт | Длительность | Начальный сектор | Конечный сектор
---------------------------------------------------------------------
1 | 0:00.00 | 3:43.02 | 0 | 16726
2 | 3:43.02 | 3:57.56 | 16727 | 34557
3 | 7:40.58 | 3:29.31 | 34558 | 50263
4 | 11:10.14 | 3:48.45 | 50264 | 67408
5 | 14:58.59 | 3:20.54 | 67409 | 82462
6 | 18:19.38 | 4:50.20 | 82463 | 104232
7 | 23:09.58 | 4:54.13 | 104233 | 126295
8 | 28:03.71 | 3:53.03 | 126296 | 143773
9 | 31:56.74 | 4:27.19 | 143774 | 163817
10 | 36:24.18 | 4:26.19 | 163818 | 183786
11 | 40:50.37 | 4:14.17 | 183787 | 202853
12 | 45:04.54 | 4:10.26 | 202854 | 221629
13 | 49:15.05 | 4:11.41 | 221630 | 240495
14 | 53:26.46 | 4:14.34 | 240496 | 259579
15 | 57:41.05 | 4:05.67 | 259580 | 278021
16 | 61:46.72 | 4:10.27 | 278022 | 296798
17 | 65:57.24 | 2:04.52 | 296799 | 306150
18 | 68:02.01 | 4:29.11 | 306151 | 326336

Трек 1

Имя файла C:\Users\Администратор\Desktop\Новая папка (2)\01 - Любе лібідо.wav

Длина предзазора 0:00:02.00

Пиковый уровень 97.7 %
Качество трека 100.0 %
CRC теста 1D8BE004
CRC копии 1D8BE004
Трек не обнаружен в базе AccurateRip
Копирование... OK

Трек 2

Имя файла C:\Users\Администратор\Desktop\Новая папка (2)\02 - Киріян.wav

Пиковый уровень 97.7 %
Качество трека 99.9 %
CRC теста 112284D2
CRC копии 112284D2
Трек не обнаружен в базе AccurateRip
Копирование... OK

Трек 3

Имя файла C:\Users\Администратор\Desktop\Новая папка (2)\03 - Небо.wav

Пиковый уровень 97.7 %
Качество трека 100.0 %
CRC теста 52AEB9E8
CRC копии 52AEB9E8
Трек не обнаружен в базе AccurateRip
Копирование... OK

Трек 4

Имя файла C:\Users\Администратор\Desktop\Новая папка (2)\04 - Залишай.wav

Пиковый уровень 97.7 %
Качество трека 100.0 %
CRC теста D8757D7D
CRC копии D8757D7D
Трек не обнаружен в базе AccurateRip
Копирование... OK

Трек 5

Имя файла C:\Users\Администратор\Desktop\Новая папка (2)\05 - Дивина.wav

Пиковый уровень 97.7 %
Качество трека 100.0 %
CRC теста 48375714
CRC копии 48375714
Трек не обнаружен в базе AccurateRip
Копирование... OK

Трек 6

Имя файла C:\Users\Администратор\Desktop\Новая папка (2)\06 - Серця.wav

Пиковый уровень 96.6 %
Качество трека 100.0 %
CRC теста 9E291C47
CRC копии 9E291C47
Трек не обнаружен в базе AccurateRip
Копирование... OK

Трек 7

Имя файла C:\Users\Администратор\Desktop\Новая папка (2)\07 - Прорив у космічних відносинах.wav

Пиковый уровень 96.6 %
Качество трека 99.9 %
CRC теста 1FEC3562
CRC копии 1FEC3562
Трек не обнаружен в базе AccurateRip
Копирование... OK

Трек 8

Имя файла C:\Users\Администратор\Desktop\Новая папка (2)\08 - Я знаю код.wav

Пиковый уровень 96.5 %
Качество трека 100.0 %
CRC теста 3C9DC0B1
CRC копии 3C9DC0B1
Трек не обнаружен в базе AccurateRip
Копирование... OK

Трек 9

Имя файла C:\Users\Администратор\Desktop\Новая папка (2)\09 - В твоїх обіймах.wav

Пиковый уровень 97.7 %
Качество трека 100.0 %
CRC теста 80DC719C
CRC копии 80DC719C
Трек не обнаружен в базе AccurateRip
Копирование... OK

Трек 10

Имя файла C:\Users\Администратор\Desktop\Новая папка (2)\10 - Зима.wav

Пиковый уровень 96.6 %
Качество трека 100.0 %
CRC теста 632597CC
CRC копии 632597CC
Трек не обнаружен в базе AccurateRip
Копирование... OK

Трек 11

Имя файла C:\Users\Администратор\Desktop\Новая папка (2)\11 - Повітря.wav

Пиковый уровень 89.1 %
Качество трека 100.0 %
CRC теста DA3F1CB7
CRC копии DA3F1CB7
Трек не обнаружен в базе AccurateRip
Копирование... OK

Трек 12

Имя файла C:\Users\Администратор\Desktop\Новая папка (2)\12 - Жовті танці.wav

Пиковый уровень 96.6 %
Качество трека 100.0 %
CRC теста DB882968
CRC копии DB882968
Трек не обнаружен в базе AccurateRip
Копирование... OK

Трек 13

Имя файла C:\Users\Администратор\Desktop\Новая папка (2)\13 - По дорозі.wav

Пиковый уровень 96.6 %
Качество трека 100.0 %
CRC теста 5FC5C4C1
CRC копии 5FC5C4C1
Трек не обнаружен в базе AccurateRip
Копирование... OK

Трек 14

Имя файла C:\Users\Администратор\Desktop\Новая папка (2)\14 - Тугу тугу.wav

Пиковый уровень 96.4 %
Качество трека 100.0 %
CRC теста E8685C36
CRC копии E8685C36
Трек не обнаружен в базе AccurateRip
Копирование... OK

Трек 15

Имя файла C:\Users\Администратор\Desktop\Новая папка (2)\15 - Дивом дивуюсь.wav

Пиковый уровень 96.4 %
Качество трека 100.0 %
CRC теста CFCEE8ED
CRC копии CFCEE8ED
Трек не обнаружен в базе AccurateRip
Копирование... OK

Трек 16

Имя файла C:\Users\Администратор\Desktop\Новая папка (2)\16 - Жінка-сокира рубає.wav

Пиковый уровень 100.0 %
Качество трека 99.9 %
CRC теста AC06476D
CRC копии AC06476D
Трек не обнаружен в базе AccurateRip
Копирование... OK

Трек 17

Имя файла C:\Users\Администратор\Desktop\Новая папка (2)\17 - Good bye.wav

Пиковый уровень 96.5 %
Качество трека 100.0 %
CRC теста FB71A41F
CRC копии FB71A41F
Трек не обнаружен в базе AccurateRip
Копирование... OK

Трек 18

Имя файла C:\Users\Администратор\Desktop\Новая папка (2)\18 - Grow old.wav

Пиковый уровень 96.6 %
Качество трека 100.0 %
CRC теста BFFF39B1
CRC копии BFFF39B1
Трек не обнаружен в базе AccurateRip
Копирование... OK

Ни одного трека нет в базе AccurateRip

Ошибок не произошло

Конец отчёта
audiochecker
AUDIOCHECKER v2.0 beta (build 457) - by Dester - [email protected]
~~~~~~~~~~~~~~~~~~~~~~~~~~~~~~~~~~
-=== НЕ РЕДАКТИРУЙТЕ ЭТОТ ФАЙЛ! ===-

Путь: ...\2004 Фактично Самі

01 -=- 01 - Любе лібідо.flac -=- CDDA (100%)
02 -=- 02 - Киріян.flac -=- CDDA (99%)
03 -=- 03 - Небо.flac -=- CDDA (100%)
04 -=- 04 - Залишай.flac -=- CDDA (100%)
05 -=- 05 - Дивина.flac -=- CDDA (100%)
06 -=- 06 - Серця.flac -=- CDDA (100%)
07 -=- 07 - Прорив у космічних відносинах.flac -=- CDDA (100%)
08 -=- 08 - Я знаю код.flac -=- CDDA (100%)
09 -=- 09 - В твоїх обіймах.flac -=- CDDA (100%)
10 -=- 10 - Зима.flac -=- CDDA (99%)
11 -=- 11 - Повітря.flac -=- CDDA (100%)
12 -=- 12 - Жовті танці.flac -=- CDDA (100%)
13 -=- 13 - По дорозі.flac -=- CDDA (100%)
14 -=- 14 - Тугу тугу.flac -=- CDDA (100%)
15 -=- 15 - Дивом дивуюсь.flac -=- CDDA (100%)
16 -=- 16 - Жінка-сокира рубає.flac -=- CDDA (100%)
17 -=- 17 - Good bye.flac -=- CDDA (100%)
18 -=- 18 - Grow old.flac -=- CDDA (100%)

Сводка 99,89% CDDA

189403588
Тривалість: 01:12:31
Мова: українська
Аудіо-кодек: FLAC
Бітрейт: 665 - 1081 кб/с
Джерело: інший трекер (в роздачі присутні скани)
Додаткова інформація:
І зовсім навіть не випадково цього разу назву гурту на конверті написано як "Fuсkтично самі". І справа тут, гадаю, не стільки в бажанні епатувати, бо неформатні вислови сьогодні – звичайне вже явище. Просто це – альтернативний рок. Міська музика – і чи дивно, що вона доволі жорстка, агресивно-цікава, амбіційна. Це енергія, яка віддзеркалює і провокує, відштовхує і притягує одночасно. І жіночий вокал тут теж виглядає далеко не випадковим. Оскільки, як на мене, в нашої землі жіноче єство і обличчя. І, добре це чи погано, але наші дівчата-жінки сьогодні, особливо міські – це справжній вибух діяльної енергії, бурхливого способу життя, безкомпромісної часто боротьби. Боротьби за що – то вже інша розмова, але жіночність нині відчутно деформована відносно свого ж образу двадцятирічної давності. „Фактично самі” – це правда, яка живе на наших вулицях, тусовках, у підвалах, квартирах, головах наших. Наче на спис, вона нанизує на ноти, на мозок факти, думки, мрії – щоб пройти наскрізь і знайти щось іще. Щось, із чим не потрібно буде битися. Щось, із чим можна буде жити – і дихати вільно.

Антон Йожик Лейба



Якщо Ви справді бажаєте підтримати українське - після прослуховування, якщо музика вам сподобалась,
придбайте ліцензійний диск.
Підтримаймо вітчизняних виконавців!


 Трекер:    Зареєстрований   

Завантажити / скачати українську музику



відео для новачків



 Зареєстрований:   2010-11-25 00:56
 Розмір:   475 MB 
 Оцінка музики:   7.5/10 (Голосів: 11)
   
Lev 
VIP


З нами з: 14.10.09
Востаннє: 09.12.16
Повідомлень: 1819

2010-11-25 21:03  
маємо таке Happy

Додано через 3 хвилини 40 секунд:

склад варто детальніше прописати, там більше музикантів

jinotot 
Почесний оцифрувальник літератури


З нами з: 28.01.09
Востаннє: 04.12.16
Повідомлень: 3235

2010-11-25 22:21  
Думаю, що назву альбома таки варто дати: Fuckтично Самі, як пише на обкладинці, і під такою назвою, наприклад продається диск на УМЦІ. Що цікаво під такою ж обкладинкою на офіційному сайті у дискографії подається зовсім інший альбом, а от про цей — ніц не сказано. Бардак, словом Happy

П.С. О! Еврика! В нас є цензура! Це ж треба таке Happy Що ж — тоді назву, мабуть, не варто змінювати — збережемо цноту Гуртом, не будемо паплюжити його матючньою від невихованої дівчинки Ірени Карпи)))

П.П.С. Ну або все ж таки змінити назву, просто-напросто написавши у тому-таки англійському широковживаному слові нашу ес, замість їхньої сі)))

В мене сьогодні якийсь вечр відкриттів — чесне слово... Happy

ssTAss 
Модератор музики


З нами з: 05.07.08
Востаннє: 09.12.16
Повідомлень: 10949

2010-11-25 22:40  
jinotot написано:
П.П.С. Ну або все ж таки змінити назву, просто-напросто написавши у тому-таки англійському широковживаному слові нашу ес, замість їхньої сі)))

так і зробив в додатковій інформації)))
але назву мабуть краще залишити таку
http://nashformat.com.ua/rock/product-895
не умкою єдиною))

jinotot 
Почесний оцифрувальник літератури


З нами з: 28.01.09
Востаннє: 04.12.16
Повідомлень: 3235

2010-11-25 22:47  
ssTAss написано:
але назву мабуть краще залишити таку
http://nashformat.com.ua/rock/product-895
не умкою єдиною))
Ну, барадак — я ж кажу Happy
Щоправда, я більше довіряю обкладинці, але то дрібниці...

Ваш часовий пояс: GMT + 2 Години

Нова тема   Відповісти