Завантажити та скачати торренти українською


Qarpa (Фактично самі) - inЖИР (2007) [FLAC] | Alternative

Нові коментарі

Нова тема   Відповісти
Автор Повідомлення
ssTAss 
Модератор музики


З нами з: 05.07.08
Востаннє: 09.12.16
Повідомлень: 10948

2010-11-24 13:56  
Qarpa (Фактично самі) - inЖИР (2007) [FLAC] | Alternative



Стиль: Alternative Rock
Країна, місто: Україна, Івано-Франківськ - Київ
Сайти: Офіційний сайт
Видавець: ЯОК music
Виконавці:
Ірена КАРПА – вокал
Олег АРТИМ – електро гітара, програмування
Артур ДАНІЄЛЯН – бас гітара, програмування
Євгенія СМОЛЯНИНОВА – віолончель
Андрій КОГУТ – барабани
а також:
Сашко Положинський (3), Ната TJ (3,5), Антоніо (1), Аліна Пятак (9), Петросян (10)
Пісні:
    01. Sex
    02. Lady Du
    03. Я тебе з'їм
    04. Кокаїн
    05. Клей
    06. &IF U Don't Love Me
    07. Вибач, Ґандзю
    08. Очі твої
    09. Мантра
    10. На мою кров
    11. Рамка для сонця
    12. Зникнути взагалі
    13. Без мене
    14. Мій перший мармуровий бог (Надто Сонна RMX)
    mp3-bonus:
    15. Секс (rmx (Sphingida) (259 кб/с VBR)
    16. Листи (rmx (Надто Сонна) (192 кб/с)
    log
    Exact Audio Copy V0.99 prebeta 4 from 23. January 2008

    Отчёт EAC об извлечении, выполненном 28. октября 2008, 20:28

    Qarpa / inЖИР

    Дисковод: HL-DT-STDVDRAM GSA-H42L Adapter: 0 ID: 0

    Режим чтения : Достоверность
    Использование точного потока : Да
    Отключение кэша аудио : Да
    Использование указателей C2 : Нет

    Коррекция смещения при чтении : 667
    Способность читать области Lead-in и Lead-out : Нет
    Заполнение пропущенных сэмплов тишиной : Да
    Удаление блоков с тишиной в начале и конце : Нет
    При вычислениях CRC использовались нулевые сэмплы : Да
    Интерфейс : Встроенный Win32-интерфейс для Win NT/2000

    Выходной формат : Внутренние WAV-операции
    Формат сэмплов : 44.100 Гц; 16 бит; стерео

    TOC извлечённого CD

    Трек | Старт | Длительность | Начальный сектор | Конечный сектор
    ---------------------------------------------------------------------
    1 | 0:00.00 | 4:11.11 | 0 | 18835
    2 | 4:11.11 | 3:54.20 | 18836 | 36405
    3 | 8:05.31 | 3:53.30 | 36406 | 53910
    4 | 11:58.61 | 2:59.47 | 53911 | 67382
    5 | 14:58.33 | 4:02.66 | 67383 | 85598
    6 | 19:01.24 | 4:11.61 | 85599 | 104484
    7 | 23:13.10 | 3:53.48 | 104485 | 122007
    8 | 27:06.58 | 3:09.56 | 122008 | 136238
    9 | 30:16.39 | 4:13.04 | 136239 | 155217
    10 | 34:29.43 | 4:59.32 | 155218 | 177674
    11 | 39:29.00 | 4:17.00 | 177675 | 196949
    12 | 43:46.00 | 4:05.45 | 196950 | 215369
    13 | 47:51.45 | 4:15.04 | 215370 | 234498
    14 | 52:06.49 | 6:48.21 | 234499 | 265119
    15 | 61:26.70 | 1:48.36 | 276520 | 284655

    Характеристики диапазона извлечения и сообщения об ошибках

    Выбранный диапазон

    Имя файла E:\Qarpa - inЖИР\Qarpa - inЖИР.wav

    Пиковый уровень 97.7 %
    Качество диапазона 100.0 %
    CRC копии 57A4C528
    Копирование... OK

    Ошибок не произошло

    AccurateRip: сводка

    Трек 1 нет в базе данных
    Трек 2 нет в базе данных
    Трек 3 нет в базе данных
    Трек 4 нет в базе данных
    Трек 5 нет в базе данных
    Трек 6 нет в базе данных
    Трек 7 нет в базе данных
    Трек 8 нет в базе данных
    Трек 9 нет в базе данных
    Трек 10 нет в базе данных
    Трек 11 нет в базе данных
    Трек 12 нет в базе данных
    Трек 13 нет в базе данных
    Трек 14 нет в базе данных

    Ни одного трека нет в базе AccurateRip

    Конец отчёта

Тривалість: 01:08:07
Мова: українська
Аудіо-кодек: FLAC
Бітрейт: 932 кб/с
Джерело: інший трекер (в роздачі присутні скани)
Додаткова інформація:
На випадок, якщо Ви раптом не в курсі: Qarpa – той самий гурт, що раніше звався Фактично Самі. Ця зміна назви більш ніж закономірна, бо фронтвумен гурту – Ірена Карпа – стала за останні роки справжньою людиною-мультимедіа. Вона і в гурті співає, і професійно прозу пише-видає, і ведучою в телевізорі виступає, і мандрівною журналістикою часом забавляється – словом, встигає все і всюди. Однозначно вміє бути неоднозначною. Важко сказати, звідки в цій тендітній дівчині така величезна кількість кінетичної енергії – залишається із щирим захопленням спостерігати, як розсічені хвилі падають по обидва боки від обраного курсу... А курс такий, що на протязі останніх трьох – включно і з цим, новим – альбомів у вражених вухах слухача звучить чимдалі більш стьобна, доволі жорстка і психотропна електронна альтернатива. Не схожа на себе попередню. І якщо порівнювати із тріп-гопом, то тріпу (не плутати з трупом і трипером!!) тут значно більше, ніж гопу (теж прохання не плутати ні з чим..). А якщо не порівнювати – це просто потужно і весело, різноманітно і дещо божевільно. Не так весело, шоб аж надірватися – а так, як в анекдоті, коли "ні, дякую, не боляче – от хіба-що коли сміюсь". Цей дивакуватий, гіркуватий гумор імпонує – пофігізмом та різкими контрастами. Зрештою, це ж яскравий антигламур – причому, майже гламурний. Межа тонка – і, власне, тим цікавіше спостерігати.

Антон Йожик Лейба


Якщо Ви справді бажаєте підтримати українське - після прослуховування, якщо музика вам сподобалась,
придбайте ліцензійний диск.
Підтримаймо вітчизняних виконавців!


 Трекер:    Зареєстрований   

Завантажити / скачати українську музику



відео для новачків



 Зареєстрований:   2010-11-24 13:56
 Розмір:   418 MB 
 Оцінка музики:   7.9/10 (Голосів: 17)
   
jinotot 
Почесний оцифрувальник літератури


З нами з: 28.01.09
Востаннє: 04.12.16
Повідомлень: 3235

2010-11-24 19:02  
Це все добре, але шось воно не роздає Happy
Хотів порівняти ті скани шо тут, з тими, шо в мене...

ssTAss 
Модератор музики


З нами з: 05.07.08
Востаннє: 09.12.16
Повідомлень: 10948

2010-11-24 23:49  
jinotot, не було мене пару хвилин Rolleyes (3)
shtoz вже завантажив
а скани ніби тут добрі.. всі)
може маєте до
Болєзні Пєвчіх Птіц
Kurva Cum Back
Lo Fi TRавми (треба тільки скан самого CD)
Космічний Вакуум
все це є у флаку, а сканів нема Sad (1)

jinotot 
Почесний оцифрувальник літератури


З нами з: 28.01.09
Востаннє: 04.12.16
Повідомлень: 3235

2010-11-25 22:08  
ssTAss написано:
а скани ніби тут добрі.. всі)
Так, але мені, наприклад, більше подобається не довжелезна "ковбаса" розгорнутого буклету, а скан окремими частинами Happy Принаймні це зруніше...

На жаль, на разі маю тіки Lo Fi TRавми та inЖИР, тому інших сканів запропонувати не можу. Хіба у друзів наколядую диски...
Ще маю диск від МР3-рекордз, на якому: збірки (як я розумію) 1995—1997, 1998 років, D.дькова Гра (1999), БПП (2000), Космічний Вакуум (2021), про три треки з Травм та КурваКамБек — бітрейт "разнаабразний", переважно віддалений від 320 кб/с, щоправда не факт, що ранні пісні можна знайти у кращій якості, а також на тому диску є п’ять штук кліпів — Кіріян, Дивина, Небо, Обернися, Між нами ніж — розмір кадру невеликий, втім, дивитися можна Happy
І я от думаю — шо з тим добром робити?

Леля22 
Попереджень: 2
Попереджень: 2 


З нами з: 22.07.15
Востаннє: 07.12.16
Повідомлень: 693

2015-10-06 23:15  
Оце кльовий альбом!!! Справді ЖИР!) І особливо (для мене): "Секс", "Lady Du", "Вибач, Ґандзю" і "Очі твої", і "Рамка для сонця". Та решта. всі подобаються! Карпа правдива, відверта, вільна, мова в неї жива. Карпа прекрасна!!!
Ваш часовий пояс: GMT + 2 Години

Нова тема   Відповісти