Завантажити та скачати торренти українською


Тризубий Стас - Я повертаюся (vol. 1, 2, 3, 4) (2004) [FLAC] | Bard

Нові коментарі

Нова тема   Відповісти
Автор Повідомлення
ssTAss 
Модератор музики


З нами з: 05.07.08
Востаннє: 11.12.16
Повідомлень: 10958

2010-11-23 14:20  
Тризубий Стас - Я повертаюся (vol. 1, 2, 3, 4) (2004) [FLAC] | Bard



Стиль: Bard (українська гумористична авторська піcня)
Країна, місто: Україна, Івано-Франківськ
Сайти: Сторінка барда
Видавець: UKRmusic
Виконавці:
Тризубий Стас


Станісла́в Іва́нович Щерба́тих (24 лютого 1948, м. Алтайськ Алтайського краю, Росія — †24 січня 2007, Київ) — український бард, відомий як Тризубий Стас. Народився 24 лютого 1948 року в Алтаї. Після смерті батька, зовсім маленьким з родиною переїхав в Україну до тітки у Івано-Франківськ.Дядько Станіслава був вояком УПА, за що відбув 10 років у сталінських концтаборах. Син - Володимир.

Музичну освіту отримав приватно. Спочатку працював музикантом у ресторані. Після одруження, як справжній романтик, разом з дружиною, з метою покращення матеріального становища, подались на Камчатку, де Стас працював художником, фотографом, директором Будинку культури.

Після повернення в Україну серйозно зайнявся роботою у документалістиці і мультиплікації. Найвідомішими є документальні фільми "Проводи на полонину" та "Людина і нафта", і мультики "Сонечко, бульдозер і я", "Армагедон", "Верблюди", "Пігмаліон".

На міжнародному фестивалі "Кіномарина -75" мультфільм "Сашкова чайка" отримав бронзову нагороду.

На "суцільну українізацію" і тотальне перевтілення росіянина, сина росіян, випускника російської школи і представника відповідного середовища повпливали дві Жінки. Перша - дружина Марія, українка з Львівщини, а друга – політична атмосфера.

У ті роки дуже популярним в Україні і у діаспорі був Львівський естрадно-гумористичний театр-студія "Не журись!". З 1991 року у Стаса разом з ними починаються гастрольні тури.

Своє сценічне псевдо Станіслав жартома пояснював тим, що має три зуба: один— на комсомол, другий— на компартію, третій— на профспілку. Серед друзів був відомий як Щербик.

Зі середини 1990-х Станіслав жив у Києві. Важкі часи перебудови мали суттєвий вплив на творчість, і Тризубий Стас стає батьком відомого всеукраїнського Гімну голодних студентів. Відчуття часу у Тризубого Стаса було феноменальним. Як тільки якась політична чи життєва реалія породжувала анекдот, він тут же відгукувався на це піснею. Вони були різними: і веселими, і дещо трагічними, і філософськими, але всі вони були про наше життя...

Станіслав Щербатих став автором сотень гумористично-сатиричних пісень, які принесли співаку всеукраїнську популярність. Його ім’я стоїть в одному ряду з іменами Віктора Морозова, Василя Жданкіна, Андрія Панчишина.

Взагалі Тризубий Стас — один з найтитулованіших українських бардів. Він лауреат фестивалів авторської пісні "Оберіг" (Гран-прі), "Білі вітрила", дипломант першої "Червоної рути", гастролював в Аргентині і Бразилії. Йому навіть довелося виступити на фестивалі в Сопоті (він тоді спеціально переклав свої пісні польською).

Стас, на думку його друзів, мав феноменальне відчуття часу. Як тільки певна політична чи життєва реалія породжувала свій анекдот, він одразу ж відгукувався на це влучною піснею про наше життя-буття. Коли наші "кооператори" почали "човникувати" до Польщі — негайно з’явилася пісня про те, "Як ми їздили до Польщі". Потім, коли почалася "дачна епоха", Стас співав: "Люди сапають, сапають, сапають, сапають. А сльози капають, капають, капають, капають, капають. Зранку до ночі в землі. І піт не всиха на чолі. І — мозолі". Або його "Екскурсія по Києву": "Добрий день, май нейм Іван. Це є централ наш майдан. Він є символ індепендент, зіс із б’ютіфуль фонтан". Була пісня і про вибори (ще в 1991 році), сьогодні вона сприймається як твір, присвячений недавнім подіям.

Станіслав був автором і ведучим власного музичного хіт-параду на телебаченні під назвою "Бард-салон із Тризубим Стасом". На касетах і CD були видані 6 альбомів. Найвідомішою стала антологія в 4 томах під назвою "Я повертаюсь", видана вже наприкінці життя співака. Автор фантастичного роману "Нічия земля".

Автор понад 300 пісень та 1300 коротких анімаційних фільмів, а також опери «Корова Середа», фантастично-кримінального роману «Нічия земля» і кількох оповідань.

Останні роки життя Станіслав працював дизайнером в редакції журналу. У 2005 р. був членом журі Всеукраїнського фестивалю бардівської пісні "Срібні Струни" (неподалік м.Корсунь-Шевченківський, Черкаська обл.).

Помер Станіслав Щербатих 24 січня 2007 року від третього інсульту у віці 58 років. Похований на кладовищі Дем'янів Лаз поблизу Івано-Франківська.

Альбоми
Щури» (1994)
Oh, Spain, Spain (1995)
Пісні про кохання (1998)
Пісні про любов» (1998)
Мене звуть Тризубий Стас» (1997)
Як ми живемо
Я повертаюся vol.I (2004)
Я повертаюся vol.II
Я повертаюся vol.III
Я повертаюся vol.IV
Пісні:
    Я повертаюся (vol.1)



    1. Ангола
    2. Повний абзац
    3. Демократизація
    4. Мілі, санти, кільо
    5. Як президента обирали
    6. Ліличка
    7. Чорнобильський метелик
    8. Щури
    9. Вітамін "Ю"
    10. Вколіть анальгіну!
    11. Сімейно – політична
    12. Гімнастика
    13. Космічна
    14. Їсти дай!
    15. Ми є такі
    16. Землетрус
    17. Глобус України
    log
    Exact Audio Copy V0.99 prebeta 5 from 4. May 2009

    Отчёт EAC об извлечении, выполненном 5. ноября 2009, 16:52

    Тризубий Стас / Я повертаюся. Vol. 1

    Дисковод: HL-DT-STRW/DVD GCC-4522B Adapter: 1 ID: 2

    Режим чтения : Достоверность
    Использование точного потока : Да
    Отключение кэша аудио : Да
    Использование указателей C2 : Нет

    Коррекция смещения при чтении : 6
    Способность читать области Lead-in и Lead-out : Нет
    Заполнение пропущенных сэмплов тишиной : Да
    Удаление блоков с тишиной в начале и конце : Нет
    При вычислениях CRC использовались нулевые сэмплы : Да
    Интерфейс : Установленный внешний ASPI-интерфейс

    Выходной формат : Пользовательский кодировщик
    Выбранный битрейт : 128 kBit/s
    Качество : Высокий
    Добавление ID3-тэга : Нет
    Утилита сжатия : C:\Program Files\FLAC\flac.exe
    Дополнительные параметры : -8 -V -T "ARTIST=%a" -T "TITLE=%t" -T "ALBUM=%g" -T "DATE=%y" -T "TRACKNUMBER=%n" -T "GENRE=%m" -T "COMMENT=EAC FLAC -8" %s

    TOC извлечённого CD

    Трек | Старт | Длительность | Начальный сектор | Конечный сектор
    ---------------------------------------------------------------------
    1 | 0:00.00 | 2:26.37 | 0 | 10986
    2 | 2:26.37 | 2:38.18 | 10987 | 22854
    3 | 5:04.55 | 2:22.37 | 22855 | 33541
    4 | 7:27.17 | 2:08.37 | 33542 | 43178
    5 | 9:35.54 | 3:32.00 | 43179 | 59078
    6 | 13:07.54 | 1:52.56 | 59079 | 67534
    7 | 15:00.35 | 3:19.18 | 67535 | 82477
    8 | 18:19.53 | 2:50.56 | 82478 | 95283
    9 | 21:10.34 | 2:07.00 | 95284 | 104808
    10 | 23:17.34 | 2:57.18 | 104809 | 118101
    11 | 26:14.52 | 3:13.18 | 118102 | 132594
    12 | 29:27.70 | 1:38.00 | 132595 | 139944
    13 | 31:05.70 | 3:40.56 | 139945 | 156500
    14 | 34:46.51 | 2:10.37 | 156501 | 166287
    15 | 36:57.13 | 4:08.00 | 166288 | 184887
    16 | 41:05.13 | 1:49.00 | 184888 | 193062
    17 | 42:54.13 | 2:30.18 | 193063 | 204330

    Характеристики диапазона извлечения и сообщения об ошибках

    Выбранный диапазон

    Имя файла D:\Audio_lossless\Тризубий Стас. Я повертаюся. Vol.1\Тризубий Стас - Я повертаюся. Vol. 1.wav

    Пиковый уровень 100.0 %
    Качество диапазона 100.0 %
    CRC теста 12A3B12F
    CRC копии 12A3B12F
    Копирование... OK

    Ошибок не произошло

    Конец отчёта
    Тривалість: 00:45:24
    Бітрейт: 704 кб/с
    Я повертаюся (vol.2)



    1. Good evening
    2. Байстрюки
    3. В цирку
    4. Дощик
    5. Клептомани
    6. Сузір’я Леонідів
    7. Коровай
    8. Гуцул – експрес
    9. Нема валюти
    10. Як ми живемо
    11. Привіз глину
    12. Рідне місто
    13. Час
    14. Про 30 копійок
    15. Голодні студенти
    16. Про Воно
    17. Душа і тіло
    log
    Exact Audio Copy V0.99 prebeta 5 from 4. May 2009

    Отчёт EAC об извлечении, выполненном 6. ноября 2009, 11:46

    Тризубий Стас / Я повертаюся. Vol. 2

    Дисковод: HL-DT-STRW/DVD GCC-4522B Adapter: 1 ID: 2

    Режим чтения : Достоверность
    Использование точного потока : Да
    Отключение кэша аудио : Да
    Использование указателей C2 : Нет

    Коррекция смещения при чтении : 6
    Способность читать области Lead-in и Lead-out : Нет
    Заполнение пропущенных сэмплов тишиной : Да
    Удаление блоков с тишиной в начале и конце : Нет
    При вычислениях CRC использовались нулевые сэмплы : Да
    Интерфейс : Установленный внешний ASPI-интерфейс

    Выходной формат : Пользовательский кодировщик
    Выбранный битрейт : 128 kBit/s
    Качество : Высокий
    Добавление ID3-тэга : Нет
    Утилита сжатия : C:\Program Files\FLAC\flac.exe
    Дополнительные параметры : -8 -V -T "ARTIST=%a" -T "TITLE=%t" -T "ALBUM=%g" -T "DATE=%y" -T "TRACKNUMBER=%n" -T "GENRE=%m" -T "COMMENT=EAC FLAC -8" %s

    TOC извлечённого CD

    Трек | Старт | Длительность | Начальный сектор | Конечный сектор
    ---------------------------------------------------------------------
    1 | 0:00.00 | 3:14.56 | 0 | 14605
    2 | 3:14.56 | 3:15.35 | 14606 | 29265
    3 | 6:30.16 | 3:16.18 | 29266 | 43983
    4 | 9:46.34 | 2:38.31 | 43984 | 55864
    5 | 12:24.65 | 3:14.37 | 55865 | 70451
    6 | 15:39.27 | 2:15.59 | 70452 | 80635
    7 | 17:55.11 | 0:54.56 | 80636 | 84741
    8 | 18:49.67 | 2:42.18 | 84742 | 96909
    9 | 21:32.10 | 2:20.56 | 96910 | 107465
    10 | 23:52.66 | 3:08.00 | 107466 | 121565
    11 | 27:00.66 | 2:21.00 | 121566 | 132140
    12 | 29:21.66 | 2:37.04 | 132141 | 143919
    13 | 31:58.70 | 2:44.19 | 143920 | 156238
    14 | 34:43.14 | 4:37.00 | 156239 | 177013
    15 | 39:20.14 | 2:12.58 | 177014 | 186971
    16 | 41:32.72 | 3:21.18 | 186972 | 202064
    17 | 44:54.15 | 2:28.08 | 202065 | 213172

    Характеристики диапазона извлечения и сообщения об ошибках

    Выбранный диапазон

    Имя файла D:\Audio_lossless\Тризубий Стас. Я повертаюся. Vol.2\Тризубий Стас - Я повертаюся. Vol. 2.wav

    Пиковый уровень 100.0 %
    Качество диапазона 100.0 %
    CRC теста 6E257140
    CRC копии 6E257140
    Копирование... OK

    Ошибок не произошло

    Конец отчёта
    Тривалість: 00:47:22
    Бітрейт: 616 кб/с
    Я повертаюся (vol.3)



    1. У Львові дощ
    2. Мете...
    3. Кохання не покидай мене
    4. Рідні буряки
    5. Жіноче алегро
    6. Іспанія, Іспанія…
    7. Лобода на городі
    8. Львівська кава
    9. Under The Table
    10.Верблюди
    11.Аргентиа
    12.Про слонів
    13.Мерседес – Бенц
    14.А люди співають…
    log
    Exact Audio Copy V0.99 prebeta 5 from 4. May 2009

    Отчёт EAC об извлечении, выполненном 6. ноября 2009, 12:33

    Тризубий Стас / Я повертаюся. Vol. 3

    Дисковод: HL-DT-STRW/DVD GCC-4522B Adapter: 1 ID: 2

    Режим чтения : Достоверность
    Использование точного потока : Да
    Отключение кэша аудио : Да
    Использование указателей C2 : Нет

    Коррекция смещения при чтении : 6
    Способность читать области Lead-in и Lead-out : Нет
    Заполнение пропущенных сэмплов тишиной : Да
    Удаление блоков с тишиной в начале и конце : Нет
    При вычислениях CRC использовались нулевые сэмплы : Да
    Интерфейс : Установленный внешний ASPI-интерфейс

    Выходной формат : Пользовательский кодировщик
    Выбранный битрейт : 128 kBit/s
    Качество : Высокий
    Добавление ID3-тэга : Нет
    Утилита сжатия : C:\Program Files\FLAC\flac.exe
    Дополнительные параметры : -8 -V -T "ARTIST=%a" -T "TITLE=%t" -T "ALBUM=%g" -T "DATE=%y" -T "TRACKNUMBER=%n" -T "GENRE=%m" -T "COMMENT=EAC FLAC -8" %s

    TOC извлечённого CD

    Трек | Старт | Длительность | Начальный сектор | Конечный сектор
    ---------------------------------------------------------------------
    1 | 0:00.00 | 4:05.00 | 0 | 18374
    2 | 4:05.00 | 4:29.56 | 18375 | 38605
    3 | 8:34.56 | 3:55.00 | 38606 | 56230
    4 | 12:29.56 | 2:48.37 | 56231 | 68867
    5 | 15:18.18 | 2:55.18 | 68868 | 82010
    6 | 18:13.36 | 4:04.18 | 82011 | 100328
    7 | 22:17.54 | 2:45.18 | 100329 | 112721
    8 | 25:02.72 | 3:04.18 | 112722 | 126539
    9 | 28:07.15 | 4:30.37 | 126540 | 146826
    10 | 32:37.52 | 2:40.37 | 146827 | 158863
    11 | 35:18.14 | 4:01.00 | 158864 | 176938
    12 | 39:19.14 | 5:34.37 | 176939 | 202025
    13 | 44:53.51 | 2:57.18 | 202026 | 215318
    14 | 47:50.69 | 4:46.56 | 215319 | 236824

    Характеристики диапазона извлечения и сообщения об ошибках

    Выбранный диапазон

    Имя файла D:\Audio_lossless\Тризубий Стас. Я повертаюся. Vol.3\Тризубий Стас - Я повертаюся. Vol. 3.wav

    Пиковый уровень 100.0 %
    Качество диапазона 100.0 %
    CRC теста A119AB44
    CRC копии A119AB44
    Копирование... OK

    Ошибок не произошло

    Конец отчёта
    Тривалість: 00:52:38
    Бітрейт: 823 кб/с
    Я повертаюся (vol.4)



    1. Біля парадного входу
    2. Метрополітен – вальс
    3. Ой, у хорі…
    4. Усі на ровер!
    5. Офелія
    6. Я люблю тебе, як…
    7. Ласощі дитинства
    8. Пуркуа па?
    9. Атомне кохання
    10. Екскурсія по Києву
    11. Киць – киць
    12. Жири, ковбаси та сири
    13. Мухояром
    14. Вертайся!
    15. Украли літо
    16. Чоловік і жінка
    log
    Exact Audio Copy V0.99 prebeta 5 from 4. May 2009

    Отчёт EAC об извлечении, выполненном 6. ноября 2009, 13:35

    Тризубий Стас / Я повертаюся. Vol. 4

    Дисковод: HL-DT-STRW/DVD GCC-4522B Adapter: 1 ID: 2

    Режим чтения : Достоверность
    Использование точного потока : Да
    Отключение кэша аудио : Да
    Использование указателей C2 : Нет

    Коррекция смещения при чтении : 6
    Способность читать области Lead-in и Lead-out : Нет
    Заполнение пропущенных сэмплов тишиной : Да
    Удаление блоков с тишиной в начале и конце : Нет
    При вычислениях CRC использовались нулевые сэмплы : Да
    Интерфейс : Установленный внешний ASPI-интерфейс

    Выходной формат : Пользовательский кодировщик
    Выбранный битрейт : 128 kBit/s
    Качество : Высокий
    Добавление ID3-тэга : Нет
    Утилита сжатия : C:\Program Files\FLAC\flac.exe
    Дополнительные параметры : -8 -V -T "ARTIST=%a" -T "TITLE=%t" -T "ALBUM=%g" -T "DATE=%y" -T "TRACKNUMBER=%n" -T "GENRE=%m" -T "COMMENT=EAC FLAC -8" %s

    TOC извлечённого CD

    Трек | Старт | Длительность | Начальный сектор | Конечный сектор
    ---------------------------------------------------------------------
    1 | 0:00.00 | 2:57.48 | 0 | 13322
    2 | 2:57.48 | 3:56.69 | 13323 | 31091
    3 | 6:54.42 | 2:14.00 | 31092 | 41141
    4 | 9:08.42 | 2:18.37 | 41142 | 51528
    5 | 11:27.04 | 3:43.12 | 51529 | 68265
    6 | 15:10.16 | 3:41.44 | 68266 | 84884
    7 | 18:51.60 | 3:53.18 | 84885 | 102377
    8 | 22:45.03 | 2:46.53 | 102378 | 114880
    9 | 25:31.56 | 3:25.37 | 114881 | 130292
    10 | 28:57.18 | 3:28.39 | 130293 | 145931
    11 | 32:25.57 | 2:52.64 | 145932 | 158895
    12 | 35:18.46 | 2:09.37 | 158896 | 168607
    13 | 37:28.08 | 3:42.23 | 168608 | 185280
    14 | 41:10.31 | 4:17.58 | 185281 | 204613
    15 | 45:28.14 | 2:24.37 | 204614 | 215450
    16 | 47:52.51 | 2:43.68 | 215451 | 227743

    Характеристики диапазона извлечения и сообщения об ошибках

    Выбранный диапазон

    Имя файла D:\Audio_lossless\Тризубий Стас. Я повертаюся. Vol.4\Тризубий Стас - Я повертаюся. Vol. 4.wav

    Пиковый уровень 100.0 %
    Качество диапазона 100.0 %
    CRC теста 164B3CBC
    CRC копии 164B3CBC
    Копирование... OK

    Ошибок не произошло

    Конец отчёта
    Тривалість: 00:50:37
    Бітрейт: 700 кб/с

Тривалість: 03:16:00
Мова: українська
Аудіо-кодек: FLAC
Бітрейт: 616 - 863 кб/с
Джерело: дякую Vlad_D1 за ріпи (в роздачі присутні всі скани)

Якщо Ви справді бажаєте підтримати українське - після прослуховування, якщо музика вам сподобалась,
придбайте ліцензійні диски ТУТ.
Підтримаймо вітчизняних виконавців!


Срібний реліз (на рейтинг впливає 50% завантаженого)
 Трекер:    Зареєстрований   

Завантажити / скачати українську музику



відео для новачків



 Зареєстрований:   2010-11-23 14:20
 Розмір:   1013 MB 
 Оцінка музики:   8.9/10 (Голосів: 24)
   
Nomad 
VIP


З нами з: 17.03.08
Востаннє: 08.02.12
Повідомлень: 513

2010-11-23 14:38  
Дякую за реліз!
Erebus_ 
Новенький


З нами з: 22.08.09
Востаннє: 21.06.15
Повідомлень: 14

2010-12-03 22:06  
Щира дяка!
Авторська пісня - це моє!

Skiff 
музика
музика


З нами з: 12.11.07
Востаннє: 11.12.16
Повідомлень: 3051

2011-03-08 09:41  
офтоп
ssTAss написано:
фантастично-кримінального роману «Нічия земля»
Свого часу він друкувався на шпальтах газети "Молодь України" (начебто). Дуже цікавий і захоплюючий роман, саме через нього я чекав випуск наступного номера. Може хто знає де знайти книгу українською, пишіть в приват. Заздалегідь вдячний.
Окрема подяка шановному ssTAssу за біографію в цій темі.

ssTAss 
Модератор музики


З нами з: 05.07.08
Востаннє: 11.12.16
Повідомлень: 10958

2012-01-07 17:48  
Skiff написано:
Може хто знає де знайти книгу українською, пишіть в приват.

пише, що видали російською
Цитата:
Ничья земля: Хроника случайностей. – Одесса: Маяк, 1998. – 484 с. [5 000 экз.] (о) ISBN 966-587-082-3 – подписано к печати 05.10.1998 г.
Ничья земля: Роман – с.9-418
Рассказы
Золотая рыбка – с.421-430
Он – с.430-434
Собачий заговор (В продолжение темы Курта Влннегута) – с.434-441
Наше сало – с.441-448
Кошмар – с.448-452
Желаемое и действительное – с.452-459
Украинские зверушки – с.460-466
Его Величество Случай – с.466-472
Версия – с.473-480

Vlad_VD 
Новенький


З нами з: 23.07.14
Востаннє: 26.09.16
Повідомлень: 1

2014-07-23 12:19  
Приємно бачити, що моя праця по розповсюдженню творчості Тризубого Стаса поширилась і на цьому ресурсі. Слухайте Тризубого Стаса та пам'ятайте.
Також приємно за дяку, як джерелу.
З повагою, Vlad_VD ( aka Vlad_D1 на тому ресурсі).

Ваш часовий пояс: GMT + 2 Години

Нова тема   Відповісти