Завантажити та скачати торренти українською


Natalya Shkoda - Viktor Stepanovych Kosenko. Piano Music, Volume 1: Eleven Etudes in the Form of Old Dances, Op.19 (2006) [FLAC] | Classic

Нові коментарі

Нова тема   Відповісти
Останній раз роздавалося ssTAss (2016-11-27)
Автор Повідомлення
ssTAss 
Модератор музики


З нами з: 05.07.08
Востаннє: 08.12.16
Повідомлень: 10947

2010-11-15 12:27  
Natalya Shkoda - Viktor Stepanovych Kosenko. Piano Music, Volume 1: Eleven Etudes in the Form of Old Dances, Op.19 (2006) [FLAC] | Classic



Стиль: Classic, Piano
Країна, місто: Україна, Харків-Київ; США, Чіко
Сайти: Офіційний сайт
Видавець: Toccata Classics
Виконавці:
Наталя Шкода - фортепіано
Віктор Косенко - композитор


Віктор Степанович Косенко (*11 (23) листопада 1896, Петербург — 3 жовтня 1938, Київ) — український композитор, піаніст, педагог.

1918 року закінчив Петроградську консерваторію по класам композиції у Н. А. Соколова та фортепіано у І.С. Миклашевської. З 1918 викладав у Музичному технікумі в Житомирі (пізніше — директор Житомирського училища). В 1938 році училищу було присвоєно його ім'я. З 1929 викладав у Київському музично-драматичному інституті (з 1932 — професор). В 1934-37 працював у Київській консерваторії.В історію української музики Віктор Косенко увійшов, насамперед, як неперевершений лірик. Його вокальна, камерна і симфонічна творчість наповнена романтичними інтонаціями слов'янської музики і народної пісні.

Одному з небагатьох українських композиторів того часу — Косенкові пощастило отримати європейську музичну освіту. Його дитинство пройшло у Варшаві. Він був справді вундеркіндом: у шість років, не знаючи нот, грав на слух Патетичну сонату Бетховена. Унікальні здібності хлопчика розвивали професори Варшавської консерваторії. Музичну освіту Косенко продовжив у метрів Петербурзької консерваторії. Її тодішнім директором був відомий російський композитор Олександр Глазунов. Оцінивши обдарованість Косенка, Глазунов звільнив його від платні за навчання. У Петербурзі юний музикант зустрічався з Рахманіновим, Скрябіним. Більшу частину життя Віктор Степанович прожив у Житомирі. Тут Косенко і його друзі-музиканти створили мистецьке середовище, яке не поступалося столичному. Як згадує співачка Зоя Гайдай, їхніми слухачами були, насамперед, селяни, робітники і солдати. На життя молодий Косенко заробляв ілюструючи музикою німі фільми. Сучасники розповідають, що глядачі бігали за ним із кінотеатру в кінотеатр, щоб послухати дивовижну гру музиканта. Адже Косенко був феноменальним піаністом. Він залишив по собі десятки творів, які увійшли у золотий фонд української фортепіанної музики. Серед них Альбом дитячих п'єс, на якому зростало багато поколінь юних піаністів. Композитор прожив лише 42 роки. Уже професор Київської консерваторії, Косенко створив симфонічну «Молдавську поему», яку так і не зміг почути. Вона прозвучала лише в наші дні.

Виступав як піаніст з сольними концертами та в ансамблях. В своїй творчості, різноманітній по жанрах і переважно ліричній по характеру, В. Косенко спирався на традиції російської (П.І. Чайковський, С. В. Рахманінов, О. Скрябін) та української класики (М. В. Лисенко).
Пісні:
    01 Gavotte in D flat major - Allegro mosso
    02 Allemande in B flat minor - Moderato
    03 Menuet in G major - Allegretto
    04 Courante in E minor - Vivace
    05 Sarabande in A minor - Adagio
    06 Bourree in A major - Allegro
    07 Gavotte in B minor - Allegro moderato
    08 Rigaudon in C major - Vivace
    09 Menuet in E flat major - Allegretto
    10 Passacaglia in G minor - Andante con grandezza
    11 Gigue in D minor - Presto
    log

    Exact Audio Copy V0.99 prebeta 4 from 23. January 2008

    EAC extraction logfile from 15. December 2009, 20:46

    Natalya Shkoda / Kosenko - Piano Music, Volume 1

    Used drive : HL-DT-STDVDRAM GSA-H10N Adapter: 3 ID: 0

    Read mode : Secure
    Utilize accurate stream : Yes
    Defeat audio cache : Yes
    Make use of C2 pointers : No

    Read offset correction : 667
    Overread into Lead-In and Lead-Out : No
    Fill up missing offset samples with silence : Yes
    Delete leading and trailing silent blocks : No
    Null samples used in CRC calculations : Yes
    Used interface : Native Win32 interface for Win NT & 2000
    Gap handling : Appended to previous track

    Used output format : User Defined Encoder
    Selected bitrate : 768 kBit/s
    Quality : High
    Add ID3 tag : No
    Command line compressor : C:\Program Files\Exact Audio Copy\Flac\flac.exe
    Additional command line options : -8 -V -T "ARTIST=%a" -T "TITLE=%t" -T "ALBUM=%g" -T "DATE=%y" -T "TRACKNUMBER=%n" -T "GENRE=%m" -T "COMMENT=Encoded by EAC 0.99pb4 FLAC -8" %s

    TOC of the extracted CD

    Track | Start | Length | Start sector | End sector
    ---------------------------------------------------------
    1 | 0:00.00 | 4:09.19 | 0 | 18693
    2 | 4:09.19 | 7:06.64 | 18694 | 50707
    3 | 11:16.08 | 5:18.33 | 50708 | 74590
    4 | 16:34.41 | 3:55.50 | 74591 | 92265
    5 | 20:30.16 | 5:53.64 | 92266 | 118804
    6 | 26:24.05 | 5:07.58 | 118805 | 141887
    7 | 31:31.63 | 3:14.44 | 141888 | 156481
    8 | 34:46.32 | 3:48.40 | 156482 | 173621
    9 | 38:34.72 | 5:08.71 | 173622 | 196792
    10 | 43:43.68 | 18:49.60 | 196793 | 281527
    11 | 62:33.53 | 6:27.59 | 281528 | 310611

    Track 1

    Filename E:\EAC\01. Natalya Shkoda - Gavotte in D flat - Allegro mosso.wav

    Pre-gap length 0:00:02.00

    Peak level 52.1 %
    Track quality 100.0 %
    Test CRC CB7AFDE9
    Copy CRC CB7AFDE9
    Track not present in AccurateRip database
    Copy OK

    Track 2

    Filename E:\EAC\02. Natalya Shkoda - Allemande in B flat - Moderato.wav

    Peak level 65.4 %
    Track quality 100.0 %
    Test CRC 070D5640
    Copy CRC 070D5640
    Track not present in AccurateRip database
    Copy OK

    Track 3

    Filename E:\EAC\03. Natalya Shkoda - Menuet in G - Allegretto.wav

    Peak level 60.2 %
    Track quality 99.9 %
    Test CRC 6053FF1F
    Copy CRC 6053FF1F
    Track not present in AccurateRip database
    Copy OK

    Track 4

    Filename E:\EAC\04. Natalya Shkoda - Courante in E min - Vivace.wav

    Peak level 51.5 %
    Track quality 100.0 %
    Test CRC 7245B52B
    Copy CRC 7245B52B
    Track not present in AccurateRip database
    Copy OK

    Track 5

    Filename E:\EAC\05. Natalya Shkoda - Sarabande in A min - Adagio.wav

    Peak level 55.9 %
    Track quality 100.0 %
    Test CRC 4B99E206
    Copy CRC 4B99E206
    Track not present in AccurateRip database
    Copy OK

    Track 6

    Filename E:\EAC\06. Natalya Shkoda - Bourree in A min - Adagio.wav

    Peak level 50.4 %
    Track quality 100.0 %
    Test CRC 4F44E011
    Copy CRC 4F44E011
    Track not present in AccurateRip database
    Copy OK

    Track 7

    Filename E:\EAC\07. Natalya Shkoda - Gavotte in B min - Allegro moderato.wav

    Peak level 29.6 %
    Track quality 99.9 %
    Test CRC 74EBE0B8
    Copy CRC 74EBE0B8
    Track not present in AccurateRip database
    Copy OK

    Track 8

    Filename E:\EAC\08. Natalya Shkoda - Rigaudon in C - Vivace.wav

    Peak level 45.6 %
    Track quality 100.0 %
    Test CRC 18282600
    Copy CRC 18282600
    Track not present in AccurateRip database
    Copy OK

    Track 9

    Filename E:\EAC\09. Natalya Shkoda - Menuet in E flat - Allegretto.wav

    Peak level 53.2 %
    Track quality 100.0 %
    Test CRC ECCF41DC
    Copy CRC ECCF41DC
    Track not present in AccurateRip database
    Copy OK

    Track 10

    Filename E:\EAC\10. Natalya Shkoda - Passacaglia in G min - Andante con grandezza.wav

    Peak level 61.1 %
    Track quality 100.0 %
    Test CRC C5D81417
    Copy CRC C5D81417
    Track not present in AccurateRip database
    Copy OK

    Track 11

    Filename E:\EAC\11. Natalya Shkoda - Gigue in D min - Presto.wav

    Peak level 55.4 %
    Track quality 100.0 %
    Test CRC 1EF1F94A
    Copy CRC 1EF1F94A
    Track not present in AccurateRip database
    Copy OK

    None of the tracks are present in the AccurateRip database

    No errors occurred

    End of status report

Тривалість: 01:09:01
Мова: без слів
Аудіо-кодек: FLAC
Бітрейт: ~ 440 кб/с
Джерело: рутрекер

Якщо Ви справді бажаєте підтримати українське - після прослуховування, якщо музика вам сподобалась,
придбайте ліцензійний диск.
Підтримаймо вітчизняних виконавців!


Срібний реліз (на рейтинг впливає 50% завантаженого)
 Трекер:    Зареєстрований   

Завантажити / скачати українську музику



відео для новачків



 Зареєстрований:   2010-11-15 12:27
 Розмір:   212 MB 
 Оцінка музики:   7.5/10 (Голосів: 11)
   
jinotot 
Почесний оцифрувальник літератури


З нами з: 28.01.09
Востаннє: 04.12.16
Повідомлень: 3235

2010-11-15 19:58  
ssTAss’е, може, для пошуку є сенс продублювати назву українською, як гадаєте?
ssTAss 
Модератор музики


З нами з: 05.07.08
Востаннє: 08.12.16
Повідомлень: 10947

2010-11-15 23:36  
jinotot написано:
для пошуку є сенс продублювати назву українською, як гадаєте?

та сенс є, але куди?))))
і так сварилось за дуже довгу назву (138 знаків то вам не хухри-мухри)

та, зрештою, най буде так... кому треба класику і так знайде (розділ ну дуже маленький - одна сторінка.. треба виправляти неподобство)) ).. та й не женуся я за кількістю лічерів.. нашо воно мені, га?)

Додано через 1 хвилину 19 секунд:

тільки що перевірив в пошуку.. чудово шукається за словами "Шкода", "Косенко"

deodatov 
Новенький


З нами з: 29.12.09
Востаннє: 03.12.16
Повідомлень: 24

2010-11-17 00:26  
Цитата:
розділ ну дуже маленький

Саме тому в цьому розділі потрібно в шапці вказувати спочатку композитора, а вже потім - виконавця. По-перше - більшість слухачів (не меломанів) тих виконавців взагалі не знають і шукають твори конкретних композиторів. По-друге - не існує стільки записів, що видані останнім часом на Україні, щоб класифікувати їх за іменами виконавців. Маю на увазі, що, приміром, ви не знайдете записів цього ж таки Косенка у виконанні різних українських піаністів. Це стосується всієї музики, що роздається тут.

ssTAss 
Модератор музики


З нами з: 05.07.08
Востаннє: 08.12.16
Повідомлень: 10947

2010-11-17 11:38  
deodatov написано:
в цьому розділі потрібно в шапці вказувати спочатку композитора, а вже потім - виконавця

є логіка у Ваших словах.. є

хоча кажу, пошук нормально справляється
навіть не заходячи в цей розділ... просто ввів "Косенко"
так що, кому потрібно - знайде

Ваш часовий пояс: GMT + 2 Години

Нова тема   Відповісти