Пропоную підняти рейтинг за рахунок нових релізів

Нові коментарі

Нова тема   Відповісти
Сторінка:   попередня  1, 2, 3
Автор Повідомлення
AlanAlan 
Почесний гуртомівець


З нами з: 29.06.08
Востаннє: 06.02.16
Повідомлень: 1377

2012-03-12 08:37  
Гапочка / Етап / MP3 / 320 kbps (2012) Rock
Жанр: Rock

01 - Криза (3:25)
02 - Ніжності (3:54)
03 - Сонечко (3:25)
04 - Не відпускає (4:04)
05 - Чому (4:38)
06 - Крила (4:55)
07 - Зникаю (4:02)
08 - Віддай (5:09)
09 - Кайф (3:11)
10 - Відстані (3:29)
11 - Камені (4:07)
12 - Поясни (7:55)

Тривалість: 00:52:21
Аудіокодек: MP3
Бітрейт аудіо: 320 кб/с

Розмір: 120 МБ

torrents.net.ua/forum/viewtopic.php?t=355395&view=newest
rutracker.org/forum/viewtopic.php?t=3979544
AlanAlan 
Почесний гуртомівець


З нами з: 29.06.08
Востаннє: 06.02.16
Повідомлень: 1377

2012-04-08 16:02  
Як розв'язувати Задачі з хімії?

Рік: 2002
Автор: Тітова О.С., Столярова Н.В.
Жанр: Хімія
Видавництво: НАУ
ISBN: 966-598-120-Х
Мова: Українська
Формат: DjVu
Якість: Відскановані сторінки шар розпізнаного тексту
Кількість сторінок: 102

Опис: Навчальний посібник містить набір завдань, які охоплюють більшість розділів курсу загальної хімії для не хімічних вузів. Призначено для студентів технічних навчальних закладів, а також учнів шкіл, ліцеїв, гімназій і коледжів при підготовці до іспиту з хімії.
taras1994 
Почесний оцифрувальник літератури


З нами з: 23.03.12
Востаннє: 30.11.16
Повідомлень: 5096

2012-04-23 15:04  
https://www.box.com/s/26437e09c47efa151c59 London_Martin_Iden.183138

https://www.box.com/s/d806cd5af7fc39e72110 Smak_Zhytt'a

https://www.box.com/s/d7d97032b51a7a2ec5b9 Pocilunok_leva

https://www.box.com/s/2318c1eba29b522cfec0 Хоменко - Еристика_мистецтво полеміки, 2001

Зробіть будь ласка реліз

[color=orange][size=9]Додано через 51 секунду:[/size][/color]

https://www.box.com/s/752e56ee8d1d301b942f govard_robert_konan_varvar_iz_kimeriji

https://www.box.com/s/dbc5a52b8dde96794d2f london_dzhek_sercja_tr'oh

https://www.box.com/s/c48e21b58101414808fe haggard_genri_rajder_kopal'ni_carja_solomona_dochka_montesumi

https://www.box.com/s/5c34589f7b35d20994ca haggard_genri_rajder_u_serci_afriki_abo_prigodi_allana_kvotermejna

https://www.box.com/s/6577ec99ef4a9645024b Vilson_Ch_Robin_Hud
urij546724 
Відео Гуртом - фільмокрай
Відео Гуртом - фільмокрай


З нами з: 16.03.10
Востаннє: 23.01.17
Повідомлень: 5222

2012-05-04 21:53  
А ніхто не бажає добряче підняти рейтинг?
Пропоную викласти реліз Вероніка Марс (Сезон 2) / Veronica Mars (Season 2) (2005-2006) 720p Ukr/Eng | Ukr/Eng.
Більше того:
Готовий опис:

Код:
[center][font="Tahoma"][size=20][b][color=brown]Вероніка Марс (Сезон 2) / Veronica Mars (Season 2) (2005-2006) Ukr/Eng | Ukr/Eng[/color][/b][/size][/font][/center]

[center][url=http://posters.hurtom.com/albums/series/veron-ka-mars.jpg][img]http://posters.hurtom.com/cache/series/veron-ka-mars_550.jpg[/img][/url]
[b]Слоган:[/b]
[color=Red]«Street smart with heart.»[/color][/center]

[b]Жанр:[/b] драма, кримінальний, містерія
[b]Країна:[/b] США

[url=http://www.imdb.com/title/tt0412253/][img]http://www.hurtom.com/imdb/tt0412253.png[/img][/url]

[b]Кінокомпанія / телеканал:[/b] Silver Pictures Television, Stu Segall Productions, Rob Thomas Productions
[b]Режисери:[/b] Джон Т. Кречмер (John T. Kretchmer), Марк Пізнарскі (Mark Piznarski), Роб Томас (Rob Thomas), Нік Марк (Nick Marck), Майкл Філдс (Michael Fields), Гаррі Вінер (Harry Winer), Джейсон Блум (Jason Bloom), Стів Гомер (Steve Gomer), Гай Норман Бі (Guy Norman Bee), Маркос Сіга (Marcos Siega), Сара Піа Андерсон (Sarah Pia Anderson)
[b]Актори:[/b] Крістен Белл (Kristen Bell), Персі Деггс III (Percy Daggs III), Джейсон Дорінг (Jason Dohring), Френсіс Капра (Francis Capra), Енріко Колантоні (Enrico Colantoni), Райан Хансен (Ryan Hansen), Тедді Данн (Teddy Dunn), Майкл Мюней (Michael Muhney), Тіна Мажоріно (Tina Majorino), Брендон Хіллок (Brandon Hillock)

[spoiler=Актори (фото):][/spoiler]

[b]Сюжет:[/b] [justify][i]Школярка Вероніка Марс, успадкувавши від батька незвичайні аналітичні здібності і рішучість, займається детективною роботою у школі - виручає друзів, провчає недругів. Батько Вероніки втратив роботу шерифа, від нього пішла дружина, він зайнявся приватним розшуком, Вероніка у всьому йому допомагає...[/i][/justify]

[spoiler=Назва серіалу в інших країнах][color=Blue]Veronica Mars[/color]
[color=Red]Фінляндія / Німеччина / Греція / Угорщина[/color]
[hr]
[color=Blue]Вероника Марс[/color]
[color=Red]Болгарія[/color]
[hr]
[color=Blue]Verónica Mars[/color]
[color=Red]Іспанія[/color]
[hr]
[color=Blue]Veronica Mars: A Jovem Espiã[/color]
[color=Red]Бразилія (дубльована версія)[/color]
[hr]
[color=Blue]Вероника Марс[/color]
[color=Red]Росія[/color][/spoiler]
[spoiler=Перелік серій згідно IMDB:]
01) Normal Is the Watchword
02) Driver Ed
03) Cheatty Cheatty Bang Bang
04) Green-Eyed Monster
05) Blast from the Past
06) Rat Saw God
07) Nobody Puts Baby in a Corner
08) Ahoy Mateys
09) My Mother, the Fiend
10) One Angry Veronica
11) Donut Run
12) Rashard and Wallace Go to White Castle
13) Ain't No Magic Mountain High Enough
14) Versatile Toppings
15) The Quick and the Wed
16) The Rapes of Graff
17) Plan B
18) I Am God
19) Nevermind the Buttocks
20) Look Who's Stalking
21) Happy Go Lucky
22) Not Pictured[/spoiler][spoiler=Media Info][spoiler=Серія 11]General
Unique ID                                : 216748709041371021664387404776025981521 (0xA310486D1E273FE69178206984D18251)
Complete name                            : D:\Veronica Mars_s02e11_-_Donut run [ukr,eng_sub eng] 720p [Hurtom by urij546724].mkv
Format                                   : Matroska
Format version                           : Version 2
File size                                : 1.31 GiB
Duration                                 : 40mn 51s
Overall bit rate                         : 4 603 Kbps
Movie name                               : Veronica Mars_s02e11_-_Donut run [ukr,eng_sub eng] 720p [Hurtom by urij546724]
Encoded date                             : UTC 2012-05-02 11:00:43
Writing application                      : mkvmerge v2.9.7 ('Tenderness') built on Jul  1 2009 18:43:35
Writing library                          : libebml v0.7.7 + libmatroska v0.8.1

Video
ID                                       : 1
Format                                   : AVC
Format/Info                              : Advanced Video Codec
Format profile                           : [email protected]
Format settings, CABAC                   : No
Format settings, ReFrames                : 2 frames
Codec ID                                 : V_MPEG4/ISO/AVC
Duration                                 : 40mn 51s
Bit rate                                 : 4 064 Kbps
Width                                    : 1 280 pixels
Height                                   : 720 pixels
Display aspect ratio                     : 16:9
Frame rate                               : 25.000 fps
Color space                              : YUV
Chroma subsampling                       : 4:2:0
Bit depth                                : 8 bits
Scan type                                : Progressive
Bits/(Pixel*Frame)                       : 0.176
Stream size                              : 1.16 GiB (88%)
Title                                    : Veronica Mars_s02e11_-_Donut run [ukr,eng_sub eng] 720p [Hurtom by urij546724]
Language                                 : English
Default                                  : Yes
Forced                                   : No
Color primaries                          : BT.709-5, BT.1361, IEC 61966-2-4, SMPTE RP177
Transfer characteristics                 : BT.709-5, BT.1361
Matrix coefficients                      : BT.709-5, BT.1361, IEC 61966-2-4 709, SMPTE RP177

Audio #1
ID                                       : 2
Format                                   : AC-3
Format/Info                              : Audio Coding 3
Mode extension                           : CM (complete main)
Codec ID                                 : A_AC3
Duration                                 : 40mn 51s
Bit rate mode                            : Constant
Bit rate                                 : 224 Kbps
Channel(s)                               : 2 channels
Channel positions                        : Front: L R
Sampling rate                            : 48.0 KHz
Bit depth                                : 16 bits
Compression mode                         : Lossy
Stream size                              : 65.5 MiB (5%)
Title                                    : Українська доріжка
Language                                 : Ukrainian
Default                                  : Yes
Forced                                   : No

Audio #2
ID                                       : 3
Format                                   : AC-3
Format/Info                              : Audio Coding 3
Mode extension                           : CM (complete main)
Codec ID                                 : A_AC3
Duration                                 : 40mn 51s
Bit rate mode                            : Constant
Bit rate                                 : 224 Kbps
Channel(s)                               : 2 channels
Channel positions                        : Front: L R
Sampling rate                            : 48.0 KHz
Bit depth                                : 16 bits
Compression mode                         : Lossy
Stream size                              : 65.5 MiB (5%)
Title                                    : Англійська доріжка
Language                                 : English
Default                                  : No
Forced                                   : No

Text
ID                                       : 4
Format                                   : UTF-8
Codec ID                                 : S_TEXT/UTF8
Codec ID/Info                            : UTF-8 Plain Text
Title                                    : Англійські субтитри
Language                                 : English
Default                                  : Yes
Forced                                   : No[/spoiler]
[spoiler=Серія 14]General
Unique ID                                : 251235166274338844849824671946392058184 (0xBD02220B0C655D8CBF42449E9111B948)
Complete name                            : D:\Veronica Mars_s02e14_-_Versatile toppings [ukr,eng_sub eng] 720p [Hurtom by urij546724].mkv
Format                                   : Matroska
Format version                           : Version 2
File size                                : 1.35 GiB
Duration                                 : 40mn 59s
Overall bit rate                         : 4 701 Kbps
Movie name                               : Veronica Mars_s02e14_-_Versatile toppings [ukr,eng_sub eng] 720p [Hurtom by urij546724]
Encoded date                             : UTC 2012-05-03 11:27:33
Writing application                      : mkvmerge v2.9.7 ('Tenderness') built on Jul  1 2009 18:43:35
Writing library                          : libebml v0.7.7 + libmatroska v0.8.1

Video
ID                                       : 1
Format                                   : AVC
Format/Info                              : Advanced Video Codec
Format profile                           : [email protected]
Format settings, CABAC                   : No
Format settings, ReFrames                : 2 frames
Codec ID                                 : V_MPEG4/ISO/AVC
Duration                                 : 40mn 59s
Bit rate                                 : 4 159 Kbps
Width                                    : 1 280 pixels
Height                                   : 720 pixels
Display aspect ratio                     : 16:9
Frame rate                               : 25.000 fps
Color space                              : YUV
Chroma subsampling                       : 4:2:0
Bit depth                                : 8 bits
Scan type                                : Progressive
Bits/(Pixel*Frame)                       : 0.181
Stream size                              : 1.19 GiB (88%)
Title                                    : Veronica Mars_s02e14_-_Versatile toppings [ukr,eng_sub eng] 720p [Hurtom by urij546724]
Language                                 : English
Default                                  : Yes
Forced                                   : No
Color primaries                          : BT.709-5, BT.1361, IEC 61966-2-4, SMPTE RP177
Transfer characteristics                 : BT.709-5, BT.1361
Matrix coefficients                      : BT.709-5, BT.1361, IEC 61966-2-4 709, SMPTE RP177

Audio #1
ID                                       : 2
Format                                   : AC-3
Format/Info                              : Audio Coding 3
Mode extension                           : CM (complete main)
Codec ID                                 : A_AC3
Duration                                 : 40mn 59s
Bit rate mode                            : Constant
Bit rate                                 : 224 Kbps
Channel(s)                               : 2 channels
Channel positions                        : Front: L R
Sampling rate                            : 48.0 KHz
Bit depth                                : 16 bits
Compression mode                         : Lossy
Stream size                              : 65.7 MiB (5%)
Title                                    : Українська доріжка
Language                                 : Ukrainian
Default                                  : Yes
Forced                                   : No

Audio #2
ID                                       : 3
Format                                   : AC-3
Format/Info                              : Audio Coding 3
Mode extension                           : CM (complete main)
Codec ID                                 : A_AC3
Duration                                 : 40mn 59s
Bit rate mode                            : Constant
Bit rate                                 : 224 Kbps
Channel(s)                               : 2 channels
Channel positions                        : Front: L R
Sampling rate                            : 48.0 KHz
Bit depth                                : 16 bits
Compression mode                         : Lossy
Stream size                              : 65.7 MiB (5%)
Title                                    : Англійська доріжка
Language                                 : English
Default                                  : No
Forced                                   : No

Text
ID                                       : 4
Format                                   : UTF-8
Codec ID                                 : S_TEXT/UTF8
Codec ID/Info                            : UTF-8 Plain Text
Title                                    : Англійські субтитри
Language                                 : English
Default                                  : Yes
Forced                                   : No[/spoiler]
[spoiler=Серія 15]General
Unique ID                                : 172196245568539207991071383589283461146 (0x818BCA627A4BD6DDB3BAA27F0484781A)
Complete name                            : D:\Veronica Mars_s02e15_-_The quick and the wed [ukr,eng_sub eng] 720p [Hurtom by urij546724].mkv
Format                                   : Matroska
Format version                           : Version 2
File size                                : 1.33 GiB
Duration                                 : 40mn 34s
Overall bit rate                         : 4 698 Kbps
Movie name                               : Veronica Mars_s02e15_-_The quick and the wed [ukr,eng_sub eng] 720p [Hurtom by urij546724]
Encoded date                             : UTC 2012-05-03 12:31:25
Writing application                      : mkvmerge v2.9.7 ('Tenderness') built on Jul  1 2009 18:43:35
Writing library                          : libebml v0.7.7 + libmatroska v0.8.1

Video
ID                                       : 1
Format                                   : AVC
Format/Info                              : Advanced Video Codec
Format profile                           : [email protected]
Format settings, CABAC                   : No
Format settings, ReFrames                : 2 frames
Codec ID                                 : V_MPEG4/ISO/AVC
Duration                                 : 40mn 34s
Bit rate                                 : 4 157 Kbps
Width                                    : 1 280 pixels
Height                                   : 720 pixels
Display aspect ratio                     : 16:9
Frame rate                               : 25.000 fps
Color space                              : YUV
Chroma subsampling                       : 4:2:0
Bit depth                                : 8 bits
Scan type                                : Progressive
Bits/(Pixel*Frame)                       : 0.180
Stream size                              : 1.18 GiB (88%)
Title                                    : Veronica Mars_s02e15_-_The quick and the wed [ukr,eng_sub eng] 720p [Hurtom by urij546724]
Language                                 : English
Default                                  : Yes
Forced                                   : No
Color primaries                          : BT.709-5, BT.1361, IEC 61966-2-4, SMPTE RP177
Transfer characteristics                 : BT.709-5, BT.1361
Matrix coefficients                      : BT.709-5, BT.1361, IEC 61966-2-4 709, SMPTE RP177

Audio #1
ID                                       : 2
Format                                   : AC-3
Format/Info                              : Audio Coding 3
Mode extension                           : CM (complete main)
Codec ID                                 : A_AC3
Duration                                 : 40mn 34s
Bit rate mode                            : Constant
Bit rate                                 : 224 Kbps
Channel(s)                               : 2 channels
Channel positions                        : Front: L R
Sampling rate                            : 48.0 KHz
Bit depth                                : 16 bits
Compression mode                         : Lossy
Stream size                              : 65.0 MiB (5%)
Title                                    : Українська доріжка
Language                                 : Ukrainian
Default                                  : Yes
Forced                                   : No

Audio #2
ID                                       : 3
Format                                   : AC-3
Format/Info                              : Audio Coding 3
Mode extension                           : CM (complete main)
Codec ID                                 : A_AC3
Duration                                 : 40mn 34s
Bit rate mode                            : Constant
Bit rate                                 : 224 Kbps
Channel(s)                               : 2 channels
Channel positions                        : Front: L R
Sampling rate                            : 48.0 KHz
Bit depth                                : 16 bits
Compression mode                         : Lossy
Stream size                              : 65.0 MiB (5%)
Title                                    : Англійська доріжка
Language                                 : English
Default                                  : No
Forced                                   : No

Text
ID                                       : 4
Format                                   : UTF-8
Codec ID                                 : S_TEXT/UTF8
Codec ID/Info                            : UTF-8 Plain Text
Title                                    : Англійські субтитри
Language                                 : English
Default                                  : Yes
Forced                                   : No[/spoiler]
[spoiler=Серія 16]General
Unique ID                                : 236499758937447429412492596098984922937 (0xB1EC325EB819256B888507F307CD4F39)
Complete name                            : D:\Veronica Mars_s02e16_-_The rapes of Graff [ukr,eng_sub eng] 720p [Hurtom by urij546724].mkv
Format                                   : Matroska
Format version                           : Version 2
File size                                : 1.36 GiB
Duration                                 : 40mn 35s
Overall bit rate                         : 4 783 Kbps
Movie name                               : Veronica Mars_s02e16_-_The rapes of Graff [ukr,eng_sub eng] 720p [Hurtom by urij546724]
Encoded date                             : UTC 2012-05-03 16:52:21
Writing application                      : mkvmerge v2.9.7 ('Tenderness') built on Jul  1 2009 18:43:35
Writing library                          : libebml v0.7.7 + libmatroska v0.8.1

Video
ID                                       : 1
Format                                   : AVC
Format/Info                              : Advanced Video Codec
Format profile                           : [email protected]
Format settings, CABAC                   : No
Format settings, ReFrames                : 2 frames
Format settings, GOP                     : N=1
Codec ID                                 : V_MPEG4/ISO/AVC
Duration                                 : 40mn 35s
Bit rate                                 : 4 240 Kbps
Width                                    : 1 280 pixels
Height                                   : 720 pixels
Display aspect ratio                     : 16:9
Frame rate                               : 25.000 fps
Color space                              : YUV
Chroma subsampling                       : 4:2:0
Bit depth                                : 8 bits
Scan type                                : Progressive
Bits/(Pixel*Frame)                       : 0.184
Stream size                              : 1.20 GiB (89%)
Title                                    : Veronica Mars_s02e16_-_The rapes of Graff [ukr,eng_sub eng] 720p [Hurtom by urij546724]
Language                                 : English
Default                                  : Yes
Forced                                   : No
Color primaries                          : BT.709-5, BT.1361, IEC 61966-2-4, SMPTE RP177
Transfer characteristics                 : BT.709-5, BT.1361
Matrix coefficients                      : BT.709-5, BT.1361, IEC 61966-2-4 709, SMPTE RP177

Audio #1
ID                                       : 2
Format                                   : AC-3
Format/Info                              : Audio Coding 3
Mode extension                           : CM (complete main)
Codec ID                                 : A_AC3
Duration                                 : 40mn 35s
Bit rate mode                            : Constant
Bit rate                                 : 224 Kbps
Channel(s)                               : 2 channels
Channel positions                        : Front: L R
Sampling rate                            : 48.0 KHz
Bit depth                                : 16 bits
Compression mode                         : Lossy
Stream size                              : 65.0 MiB (5%)
Title                                    : Українська доріжка
Language                                 : Ukrainian
Default                                  : Yes
Forced                                   : No

Audio #2
ID                                       : 3
Format                                   : AC-3
Format/Info                              : Audio Coding 3
Mode extension                           : CM (complete main)
Codec ID                                 : A_AC3
Duration                                 : 40mn 35s
Bit rate mode                            : Constant
Bit rate                                 : 224 Kbps
Channel(s)                               : 2 channels
Channel positions                        : Front: L R
Sampling rate                            : 48.0 KHz
Bit depth                                : 16 bits
Compression mode                         : Lossy
Stream size                              : 65.0 MiB (5%)
Title                                    : Англійська доріжка
Language                                 : English
Default                                  : No
Forced                                   : No

Text
ID                                       : 4
Format                                   : UTF-8
Codec ID                                 : S_TEXT/UTF8
Codec ID/Info                            : UTF-8 Plain Text
Title                                    : Англійські субтитри
Language                                 : English
Default                                  : Yes
Forced                                   : No[/spoiler]
[spoiler=Серія 17]General
Unique ID                                : 240293825262442082585110649482660671500 (0xB4C6E8483FB109B7A01A5F00C155F00C)
Complete name                            : D:\Veronica Mars_s02e17_-_Plan B [ukr,eng_sub eng] 720p [Hurtom by urij546724].mkv
Format                                   : Matroska
Format version                           : Version 2
File size                                : 1.35 GiB
Duration                                 : 40mn 58s
Overall bit rate                         : 4 702 Kbps
Movie name                               : Veronica Mars_s02e17_-_Plan B [ukr,eng_sub eng] 720p [Hurtom by urij546724]
Encoded date                             : UTC 2012-05-03 18:01:57
Writing application                      : mkvmerge v2.9.7 ('Tenderness') built on Jul  1 2009 18:43:35
Writing library                          : libebml v0.7.7 + libmatroska v0.8.1

Video
ID                                       : 1
Format                                   : AVC
Format/Info                              : Advanced Video Codec
Format profile                           : [email protected]
Format settings, CABAC                   : No
Format settings, ReFrames                : 2 frames
Codec ID                                 : V_MPEG4/ISO/AVC
Duration                                 : 40mn 58s
Bit rate                                 : 4 160 Kbps
Width                                    : 1 280 pixels
Height                                   : 720 pixels
Display aspect ratio                     : 16:9
Frame rate                               : 25.000 fps
Color space                              : YUV
Chroma subsampling                       : 4:2:0
Bit depth                                : 8 bits
Scan type                                : Progressive
Bits/(Pixel*Frame)                       : 0.181
Stream size                              : 1.19 GiB (88%)
Title                                    : Veronica Mars_s02e17_-_Plan B [ukr,eng_sub eng] 720p [Hurtom by urij546724]
Language                                 : English
Default                                  : Yes
Forced                                   : No
Color primaries                          : BT.709-5, BT.1361, IEC 61966-2-4, SMPTE RP177
Transfer characteristics                 : BT.709-5, BT.1361
Matrix coefficients                      : BT.709-5, BT.1361, IEC 61966-2-4 709, SMPTE RP177

Audio #1
ID                                       : 2
Format                                   : AC-3
Format/Info                              : Audio Coding 3
Mode extension                           : CM (complete main)
Codec ID                                 : A_AC3
Duration                                 : 40mn 58s
Bit rate mode                            : Constant
Bit rate                                 : 224 Kbps
Channel(s)                               : 2 channels
Channel positions                        : Front: L R
Sampling rate                            : 48.0 KHz
Bit depth                                : 16 bits
Compression mode                         : Lossy
Stream size                              : 65.6 MiB (5%)
Title                                    : Українська доріжка
Language                                 : Ukrainian
Default                                  : Yes
Forced                                   : No

Audio #2
ID                                       : 3
Format                                   : AC-3
Format/Info                              : Audio Coding 3
Mode extension                           : CM (complete main)
Codec ID                                 : A_AC3
Duration                                 : 40mn 58s
Bit rate mode                            : Constant
Bit rate                                 : 224 Kbps
Channel(s)                               : 2 channels
Channel positions                        : Front: L R
Sampling rate                            : 48.0 KHz
Bit depth                                : 16 bits
Compression mode                         : Lossy
Stream size                              : 65.6 MiB (5%)
Title                                    : Англійська доріжка
Language                                 : English
Default                                  : No
Forced                                   : No

Text
ID                                       : 4
Format                                   : UTF-8
Codec ID                                 : S_TEXT/UTF8
Codec ID/Info                            : UTF-8 Plain Text
Title                                    : Англійські субтитри
Language                                 : English
Default                                  : Yes
Forced                                   : No[/spoiler]
[spoiler=Серія 20]General
Unique ID                                : 231627569601176503503229327636378277941 (0xAE41D8E3ACF63B7AAA5767FD195DD835)
Complete name                            : C:\dorizki\Veronica Mars_s02e20_-_Look who's stalking now [ukr,eng_sub eng] 720p [Hurtom by urij546724].mkv
Format                                   : Matroska
Format version                           : Version 2
File size                                : 1.40 GiB
Duration                                 : 40mn 49s
Overall bit rate                         : 4 903 Kbps
Movie name                               : Veronica Mars_s02e20_-_Look who's stalking now [ukr,eng_sub eng] 720p [Hurtom by urij546724]
Encoded date                             : UTC 2012-05-04 13:39:07
Writing application                      : mkvmerge v2.9.7 ('Tenderness') built on Jul  1 2009 18:43:35
Writing library                          : libebml v0.7.7 + libmatroska v0.8.1

Video
ID                                       : 1
Format                                   : AVC
Format/Info                              : Advanced Video Codec
Format profile                           : [email protected]
Format settings, CABAC                   : No
Format settings, ReFrames                : 2 frames
Codec ID                                 : V_MPEG4/ISO/AVC
Duration                                 : 40mn 49s
Bit rate                                 : 4 358 Kbps
Width                                    : 1 280 pixels
Height                                   : 720 pixels
Display aspect ratio                     : 16:9
Frame rate                               : 25.000 fps
Color space                              : YUV
Chroma subsampling                       : 4:2:0
Bit depth                                : 8 bits
Scan type                                : Progressive
Bits/(Pixel*Frame)                       : 0.189
Stream size                              : 1.24 GiB (89%)
Title                                    : Veronica Mars_s02e20_-_Look who's stalking now [ukr,eng_sub eng] 720p [Hurtom by urij546724]
Language                                 : English
Default                                  : Yes
Forced                                   : No
Color primaries                          : BT.709-5, BT.1361, IEC 61966-2-4, SMPTE RP177
Transfer characteristics                 : BT.709-5, BT.1361
Matrix coefficients                      : BT.709-5, BT.1361, IEC 61966-2-4 709, SMPTE RP177

Audio #1
ID                                       : 2
Format                                   : AC-3
Format/Info                              : Audio Coding 3
Mode extension                           : CM (complete main)
Codec ID                                 : A_AC3
Duration                                 : 40mn 49s
Bit rate mode                            : Constant
Bit rate                                 : 224 Kbps
Channel(s)                               : 2 channels
Channel positions                        : Front: L R
Sampling rate                            : 48.0 KHz
Bit depth                                : 16 bits
Compression mode                         : Lossy
Stream size                              : 65.4 MiB (5%)
Title                                    : Українська доріжка
Language                                 : Ukrainian
Default                                  : Yes
Forced                                   : No

Audio #2
ID                                       : 3
Format                                   : AC-3
Format/Info                              : Audio Coding 3
Mode extension                           : CM (complete main)
Codec ID                                 : A_AC3
Duration                                 : 40mn 49s
Bit rate mode                            : Constant
Bit rate                                 : 224 Kbps
Channel(s)                               : 2 channels
Channel positions                        : Front: L R
Sampling rate                            : 48.0 KHz
Bit depth                                : 16 bits
Compression mode                         : Lossy
Stream size                              : 65.4 MiB (5%)
Title                                    : Англійська доріжка
Language                                 : English
Default                                  : No
Forced                                   : No

Text
ID                                       : 4
Format                                   : UTF-8
Codec ID                                 : S_TEXT/UTF8
Codec ID/Info                            : UTF-8 Plain Text
Title                                    : Англійські субтитри
Language                                 : English
Default                                  : Yes
Forced                                   : No[/spoiler]
[spoiler=Серія 21]General
Unique ID                                : 186932443524333170864382882636988807066 (0x8CA1E109D20C29ECAFA60D9FA521F79A)
Complete name                            : E:\Veronica Mars_s02e21_-_Happy go lucky [ukr,eng_sub eng] 720p [Hurtom by urij546724].mkv
Format                                   : Matroska
Format version                           : Version 2
File size                                : 1.33 GiB
Duration                                 : 40mn 54s
Overall bit rate                         : 4 657 Kbps
Movie name                               : Veronica Mars_s02e21_-_Happy go lucky [ukr,eng_sub eng] 720p [Hurtom by urij546724]
Encoded date                             : UTC 2012-05-04 17:25:47
Writing application                      : mkvmerge v2.9.7 ('Tenderness') built on Jul  1 2009 18:43:35
Writing library                          : libebml v0.7.7 + libmatroska v0.8.1

Video
ID                                       : 1
Format                                   : AVC
Format/Info                              : Advanced Video Codec
Format profile                           : [email protected]
Format settings, CABAC                   : No
Format settings, ReFrames                : 2 frames
Codec ID                                 : V_MPEG4/ISO/AVC
Duration                                 : 40mn 54s
Bit rate                                 : 4 116 Kbps
Width                                    : 1 280 pixels
Height                                   : 720 pixels
Display aspect ratio                     : 16:9
Frame rate                               : 25.000 fps
Color space                              : YUV
Chroma subsampling                       : 4:2:0
Bit depth                                : 8 bits
Scan type                                : Progressive
Bits/(Pixel*Frame)                       : 0.179
Stream size                              : 1.18 GiB (88%)
Title                                    : Veronica Mars_s02e21_-_Happy go lucky [ukr,eng_sub eng] 720p [Hurtom by urij546724]
Language                                 : English
Default                                  : Yes
Forced                                   : No
Color primaries                          : BT.709-5, BT.1361, IEC 61966-2-4, SMPTE RP177
Transfer characteristics                 : BT.709-5, BT.1361
Matrix coefficients                      : BT.709-5, BT.1361, IEC 61966-2-4 709, SMPTE RP177

Audio #1
ID                                       : 2
Format                                   : AC-3
Format/Info                              : Audio Coding 3
Mode extension                           : CM (complete main)
Codec ID                                 : A_AC3
Duration                                 : 40mn 54s
Bit rate mode                            : Constant
Bit rate                                 : 224 Kbps
Channel(s)                               : 2 channels
Channel positions                        : Front: L R
Sampling rate                            : 48.0 KHz
Bit depth                                : 16 bits
Compression mode                         : Lossy
Stream size                              : 65.5 MiB (5%)
Title                                    : Українська доріжка
Language                                 : Ukrainian
Default                                  : Yes
Forced                                   : No

Audio #2
ID                                       : 3
Format                                   : AC-3
Format/Info                              : Audio Coding 3
Mode extension                           : CM (complete main)
Codec ID                                 : A_AC3
Duration                                 : 40mn 54s
Bit rate mode                            : Constant
Bit rate                                 : 224 Kbps
Channel(s)                               : 2 channels
Channel positions                        : Front: L R
Sampling rate                            : 48.0 KHz
Bit depth                                : 16 bits
Compression mode                         : Lossy
Stream size                              : 65.5 MiB (5%)
Title                                    : Англійська доріжка
Language                                 : English
Default                                  : No
Forced                                   : No

Text
ID                                       : 4
Format                                   : UTF-8
Codec ID                                 : S_TEXT/UTF8
Codec ID/Info                            : UTF-8 Plain Text
Title                                    : Англійські субтитри
Language                                 : English
Default                                  : Yes
Forced                                   : No[/spoiler]
[spoiler=Серія 22]General
Unique ID                                : 203954694974778922305970434736059958437 (0x99703ED4D47F8B548AD143D1ECF1C4A5)
Complete name                            : C:\dorizki\Veronica Mars_s02e22_-_Not pictured [ukr,eng_sub eng] 720p [Hurtom by urij546724].mkv
Format                                   : Matroska
Format version                           : Version 2
File size                                : 1.34 GiB
Duration                                 : 40mn 37s
Overall bit rate                         : 4 728 Kbps
Movie name                               : Veronica Mars_s02e22_-_Not pictured [ukr,eng_sub eng] 720p [Hurtom by urij546724]
Encoded date                             : UTC 2012-05-04 17:37:04
Writing application                      : mkvmerge v2.9.7 ('Tenderness') built on Jul  1 2009 18:43:35
Writing library                          : libebml v0.7.7 + libmatroska v0.8.1

Video
ID                                       : 1
Format                                   : AVC
Format/Info                              : Advanced Video Codec
Format profile                           : [email protected]
Format settings, CABAC                   : No
Format settings, ReFrames                : 2 frames
Format settings, GOP                     : N=1
Codec ID                                 : V_MPEG4/ISO/AVC
Duration                                 : 40mn 37s
Bit rate                                 : 4 186 Kbps
Width                                    : 1 280 pixels
Height                                   : 720 pixels
Display aspect ratio                     : 16:9
Frame rate                               : 25.000 fps
Color space                              : YUV
Chroma subsampling                       : 4:2:0
Bit depth                                : 8 bits
Scan type                                : Progressive
Bits/(Pixel*Frame)                       : 0.182
Stream size                              : 1.19 GiB (89%)
Title                                    : Veronica Mars_s02e22_-_Not pictured [ukr,eng_sub eng] 720p [Hurtom by urij546724]
Language                                 : English
Default                                  : Yes
Forced                                   : No
Color primaries                          : BT.709-5, BT.1361, IEC 61966-2-4, SMPTE RP177
Transfer characteristics                 : BT.709-5, BT.1361
Matrix coefficients                      : BT.709-5, BT.1361, IEC 61966-2-4 709, SMPTE RP177

Audio #1
ID                                       : 2
Format                                   : AC-3
Format/Info                              : Audio Coding 3
Mode extension                           : CM (complete main)
Codec ID                                 : A_AC3
Duration                                 : 40mn 37s
Bit rate mode                            : Constant
Bit rate                                 : 224 Kbps
Channel(s)                               : 2 channels
Channel positions                        : Front: L R
Sampling rate                            : 48.0 KHz
Bit depth                                : 16 bits
Compression mode                         : Lossy
Stream size                              : 65.1 MiB (5%)
Title                                    : Українська доріжка
Language                                 : Ukrainian
Default                                  : Yes
Forced                                   : No

Audio #2
ID                                       : 3
Format                                   : AC-3
Format/Info                              : Audio Coding 3
Mode extension                           : CM (complete main)
Codec ID                                 : A_AC3
Duration                                 : 40mn 37s
Bit rate mode                            : Constant
Bit rate                                 : 224 Kbps
Channel(s)                               : 2 channels
Channel positions                        : Front: L R
Sampling rate                            : 48.0 KHz
Bit depth                                : 16 bits
Compression mode                         : Lossy
Stream size                              : 65.1 MiB (5%)
Title                                    : Англійська доріжка
Language                                 : English
Default                                  : No
Forced                                   : No

Text
ID                                       : 4
Format                                   : UTF-8
Codec ID                                 : S_TEXT/UTF8
Codec ID/Info                            : UTF-8 Plain Text
Title                                    : Англійські субтитри
Language                                 : English
Default                                  : Yes
Forced                                   : No[/spoiler][/spoiler]

[b]Тривалість:[/b] 1 серія: ~ по 39-42 хв. (цілком серій: 22)
[b]Якість:[/b]
[b]Відео:[/b]
[color=green][i]кодек:[/i][/color]
[color=green][i]розмір кадру:[/i][/color] 720 х 400
[color=green][i]бітрейт:[/i][/color] ~ 2083 кб/с
[color=green][i]частота кадрів:[/i][/color] 25 к/с (fps)

[b]Аудіо #1:[/b]
[color=green][i]мова:[/i][/color] українська
[color=green][i]переклад:[/i][/color] двоголосий закадровий
[color=green][i]кодек:[/i][/color] 2.0
[color=green][i]бітрейт:[/i][/color] 224 кб/с
[color=green][i]озвучено:[/i][/color] [url=http://toloka.to/t26414][img]http://toloka.to/img/dubbing/Новий_канал.gif[/img][/url]
[color=green][i]примітка:[/i][/color] у 2-й серії відсутня озвучка на відрізках 13:18-13:45 і 14:43-14:53, також у багатьох серіях був невеличкий дроп(и), тож "позїдало" деякі слова. :<

[b]Аудіо #2:[/b]
[color=green][i]мова:[/i][/color] англійська
[color=green][i]переклад:[/i][/color] оригінал
[color=green][i]кодек:[/i][/color] 2.0
[color=green][i]бітрейт:[/i][/color] 224 кб/с

[b]Субтитри #1 (лише 1-5 серії):[/b]
[color=green][i]мова:[/i][/color] українська
[color=green][i]тип:[/i][/color] програмні (м'які)
[color=green][i]формат:[/i][/color] *.srt
[color=green][i]переклад:[/i][/color] з російської [url=http://toloka.to/u71368]urij546724[/url]

[b]Субтитри #2:[/b]
[color=green][i]мова:[/i][/color] англійська
[color=green][i]тип:[/i][/color] програмні (м'які)
[color=green][i]формат:[/i][/color] *.srt

[center][spoiler=Скріншоти:][url=http://pic.te.ua/images/2012-05-04/3Vb2s.png][img]http://pic.te.ua/images/2012-05-04/thumbs/3Vb2s.png[/img][/url] [url=http://pic.te.ua/images/2012-05-04/RX16c.png][img]http://pic.te.ua/images/2012-05-04/thumbs/RX16c.png[/img][/url] [url=http://pic.te.ua/images/2012-05-04/S89Lu.png][img]http://pic.te.ua/images/2012-05-04/thumbs/S89Lu.png[/img][/url] [url=http://pic.te.ua/images/2012-05-04/8f0UC.png][img]http://pic.te.ua/images/2012-05-04/thumbs/8f0UC.png[/img][/url]
[url=http://pic.te.ua/images/2012-05-04/5IKBC.png][img]http://pic.te.ua/images/2012-05-04/thumbs/5IKBC.png[/img][/url] [url=http://pic.te.ua/images/2012-05-04/tMhxj.png][img]http://pic.te.ua/images/2012-05-04/thumbs/tMhxj.png[/img][/url] [url=http://pic.te.ua/images/2012-05-04/5Ko0G.png][img]http://pic.te.ua/images/2012-05-04/thumbs/5Ko0G.png[/img][/url] [url=http://pic.te.ua/images/2012-05-04/7cUtw.png][img]http://pic.te.ua/images/2012-05-04/thumbs/7cUtw.png[/img][/url][/spoiler][spoiler=Трейлери][youtube]http://www.youtube.com/watch?v=dhCwJyqIO3E[/youtube]
[youtube]http://www.youtube.com/watch?v=LVq3TmD8X80[/youtube]
[youtube]http://www.youtube.com/watch?v=kI6iJk63_5s[/youtube]
[youtube]http://www.youtube.com/watch?v=BrcwcPyFpY0[/youtube][/spoiler][spoiler=Семпл:][url=http://hipfile.com/vop01shz8bxc/[Sempl]_Veronica_Mars_s02e22_-_Not_pictured_[ukr,eng_sub_eng]_WEB-DLRip_720p_[Hurtom_by_urij546724].mkv.html]Джерело 1[/url]_________[url=http://w794622.open.ge.tt/1/files/8oET1FH/0/blob?download]Джерело 2[/url]_________[url=http://kiwi6.com/file/a040j29w86]Джерело 3[/url]_________[url=http://file.oboz.ua/download.php?fid=130274]Джерело 4[/url]
[size=7]У випадку, якщо з усіх джерел семпл видалять, прохання повідомити мені у [url=http://toloka.to/privmsg.php?mode=post&u=71368]ПРИВАТ[/url][/size][/spoiler][/center]

[center][b]Подяка:[/b][/center]
[center][b][color=Green]1. Пану[/color] [url=http://toloka.to/u108936][color=brown]OlegCena[/color][/url] за надання українського звуку.[/b]
[b][color=Green]2. Пану[/color] [url=http://toloka.to/u158224][color=brown]Gelios[/color][/url] за українізацію постера.[/b][/center]

[b]Реліз створено:[/b] [img]http://toloka.to/img/Проект_Відео_Гуртом.gif[/img] & [img]http://toloka.to/img/Rutracker.org.gif[/img]
AlanAlan 
Почесний гуртомівець


З нами з: 29.06.08
Востаннє: 06.02.16
Повідомлень: 1377

2012-05-24 18:35  
“GasLand”. Скандальний фільм відтепер можна переглянути українською

Фільму я не бачив, тому не можу знати, чи там щось розумне кажуть, чи це якась агітка для недолугих. Здоровий глузд підказує, що швидше друге, але може раптом...

Далі текст новини:


Можливо, GasLand поширюється? Можливо, завтра він дістанеться до Вас? Що це може значити – дізнаєтесь, переглянувши фільм. Група Інтернет-активістів підготувала українську та російську версію субтитрів для фільму та розмістила їх у відкритому доступі у всесвітній мережі.

Сланцевий газ. Він є всюди в Україні. Після призначення на посаду міністра екології та природних ресурсів Едуарда Ставицького, країна дуже швидшко почала рух в сторону розробки родовищ сланцевого газу. Відтепер його видобуток можуть почати просто біля вашого будинку.

Знятий у жанрі журналістського розслідування, документальний фільм американського режисера Джоша Фокса «GasLand» демонструє реальні екологічні наслідки видобутку сланцевого газу в США. У фільмі розглянуто технологію гідророзриву пластів, що наразі є поширеною у нафто- і газовидобутку в США. Відповідні зміни до законодавчих актів США, які вивели нафтову і газову галузь США з-під дії законів про чистоту води і повітря, пролобійовані Діком Чейні та прийняті ще в 2005 році. Як за це розплатились американці – показано у фільмі.

Чи є фільм пророцтвом екологічного лиха для українців? На це питання відповіді поки немає.

Завантажити фільм для перегляду на домашньому комп’ютері можна з мережі Інтернет:
фільм з українськими вбудованими титрами:
http://filestore.com.ua/?d=32A8151B4
http://us.ua/836449

“скріни” з фільму, для оформлення роздач на торентах та інше:
http://filestore.com.ua/?d=91AA12B54


Джерело новини: http://maidan.org.ua/2012/05/gasland-skandalnyj-film-vidteper-mozhna-perehlyanuty-ukrajinskoyu/
_oles 
Відео Гуртом - фільмокрай
Відео Гуртом - фільмокрай


З нами з: 07.11.08
Востаннє: 19.01.17
Повідомлень: 1399

2012-05-25 07:55  
Для мисливців та любителів полювання:
Нi пуху, нi пера (старі випуски тележурнала)
http://rutracker.org/forum/viewtopic.php?t=3719391
AlanAlan 
Почесний гуртомівець


З нами з: 29.06.08
Востаннє: 06.02.16
Повідомлень: 1377

2012-06-24 20:31  
Кіт / Keith (2008) 93 min, драма, мелодрама

У клас до сімнадцятирічної Наталі приходить новий учень Кіт Зеттерстром. Спочатку нічого, крім роздратування, молодий чоловік у Наталі не викликає, до того ж він стає її партнером злабораторних робіт. Поступово дівчина закохується, і Кіт відповідає їй взаємністю, але початку відносин перешкоджає таємниця, яку приховує Кіт ...

IMDB-рейтинг 7.5
http://www.imdb.com/title/tt0435679/
субтитри http://www.opensubtitles.org/en/subtitles/4580208/keith-uk
відео thepiratebay.se/torrent/5196875
lpershyi 
Попереджень: 2
Попереджень: 2 


З нами з: 04.01.11
Востаннє: 27.12.16
Повідомлень: 2622

2012-06-26 13:06  
urij546724 написано:
Пропоную викласти реліз Вероніка Марс (Сезон 2) / Veronica Mars (Season 2) (2005-2006) 720p Ukr/Eng | Ukr/Eng.
ще можна викладати у .мкв?
AlanAlan 
Почесний гуртомівець


З нами з: 29.06.08
Востаннє: 06.02.16
Повідомлень: 1377

2012-06-29 19:34  
Лесь Подерв'янський
1. Митець (DVD5)

ex.ua/view/15407913

Жанр: Сатира
Країна: Україна
Режисер: Лесь Подерв'янський
У ролях: Лесь Подерв'янський
--------------------------------------------------------------------------------
Сюжет / опис фільму:
"Свобода – це завжди думка чи вчинок, що веде вбік; миттєвий стрибок, рух по дотичній. Так чинить хом’як, коли вистрибує з свого колеса: його стрибок і є свобода. І хоч вона швидкоплинна, але ж є можливість знову залізти у колесо і знову вистрибнути, або перегризти грати клітки, втрапити кішці у пазурі, втекти від неї під шафу, потім дати себе знайти напівмертвим, у темному закутку під віником, опинитися у хом’ячиному шпиталі, нюхати сморід звірячого жаху, пестити гематоми від уколів на ср..ці і чекати на друзів: вони принесуть свіже зерно, щоб пхати його за щоки (або апельсини з коньяком) – Bon appetite! Головне – не звикнути до всього цього, а звикнувши, знову відчебучити який-небудь новий суперстрибок." Лесь Подерв’янський.
Перший диск видання зветься "ДРАМАТУРГІЯ" і містить найповніше на сьогодні зібрання творів Подерв’янського у форматі mp3. Другий – зветься "ЖИВОПИС", і це DVD, яке містить: колекцію картин Подерв’янського з супровідними текстами, біографічну статтю, а також два відео з виступів Подерв’янського у Києві та Львові.
Лесь Подерв’янський – яскравий приклад того, як естетичний нонконформізм, замішаний на гострому почутті гумору, може призвести до практично всенародного визнання. Не обов’язково це визнання є позитивним – тут голоси діляться, мабуть, приблизно 50 на 50. Але і ті, кому активно подобається творчість Подерв’янського, і ті, кому вона активно не подобається – знають, про що йде мова. Тобто – слухали...
2. Митець (mp3)

ex.ua/view/15260043

Бітрейт аудіо: 128-256 кб/с
-----------------------------------------------------------------

Список томів/частин: прихований текст

CD1 mp3 - ДРАМАТУРГІЯ:
1. Гамлєт, або феномен датського кацапізму
2. Блєск і ніщета підарасів
3. Дохуя масла
4. Піздєц (присвячується творчім спілкам)
5. Восток
6. Тріасовий період, або пригоди хтивих павіанів Борі і Жори
7. Останвісь, мгновеніє, ти прекрасно
8. Іржик (воєнно-патріотична п’єса)
9. Рух життя, або дінамо
10. Діана
11. Пацавата історія
12. Кацапи
13. Место встречі ізмєніть ніззя, ..цензура..
14. Цікаві досліди
15. Жан Маре та його друзі
16. Казка про рєпку, або хулі не ясно
17. Хвороба Івасика
18. Король Літр (трагедія)
19. Нірвана, або зу шерех Заратустра
20. Йоги
21. Сноби
22. Герой нашого часу (частина перша)
23. Герой нашого часу (частина друга)
24. Йоко і самураї (містичний самурайський бойовик)
25. Хуйня
26. Свобода
27. Павлік Морозов
28. Васілісі Єгоровна і мужичкі
29. Утопія
30. День колгоспника
31. Сказ
32. Данко
33. П’ять хвилин на родуми (п’єса без дійових осіб)
3. Павлік Морозов (DVD5)

ex.ua/view/15265531

Жанр: Епічна трагедія
Країна: Україна
Режисер: Андрій Крітенко
У ролях: Євген Капорін, Олена Рєпіна, Олена Хижна, Володимир Ямненко, Олег Примогенов, Єгор Пчьолкін, Георгій Фомін, Сергій Калантай, Микола Вересень, Андрій Середа, Світлана Вольнова, Іван Денисенко, Павло Пронтенко, Ірина Стригіна, Катерина Шаміна.
Сюжет / опис фільму:
Епічна трагедія "ПАВЛІК МОРОЗОВ" за п’єсою найпопулярнiшого i водночас найскандальнішого українського драматурга і художника Леся Подерв'янського.

Тривалість: 01:31:30
Тип: DVD-5
Система: PAL
Бітрейт відео: 6512 кб/с
Співвідношення сторін: 16х9
Розмір диску: 4.16 Gb ( 4 469 680 KBytes ) - DVD-5
Наявність меню: Є
Наявність додаткових матеріалів: Немає
Аудіо доріжки: Українська 2.0
Субтитри: Немає
Переклад: Оригінал
urij546724 
Відео Гуртом - фільмокрай
Відео Гуртом - фільмокрай


З нами з: 16.03.10
Востаннє: 23.01.17
Повідомлень: 5222

2012-06-30 22:30  
lpershyi написано:
ще можна викладати у .мкв?

Тобто?
Викладаєш у Серіали в HD і все. Опис там є, тож залишилось завантажити і створити торент файл.
lpershyi 
Попереджень: 2
Попереджень: 2 


З нами з: 04.01.11
Востаннє: 27.12.16
Повідомлень: 2622

2012-07-01 03:16  
urij546724 написано:
Викладаєш
так
urij546724 написано:
тож залишилось
зробленo Happy
urij546724 
Відео Гуртом - фільмокрай
Відео Гуртом - фільмокрай


З нами з: 16.03.10
Востаннє: 23.01.17
Повідомлень: 5222

2012-07-28 17:34  
Різні шоу і програми:
Відкрити:
AlanAlan 
Почесний гуртомівець


З нами з: 29.06.08
Востаннє: 06.02.16
Повідомлень: 1377

2012-07-30 09:15  
Незграба / Awkward, серіал (2011-2012)
Американська молодіжна комедійна драма від MTV. 15-річну Дженну Гамільтон (Ashley Rickards) неправильно сприймає оточення, особливо після того, як вона потрапила в аварію і це було розцінено як спроба самогубства.

Субтитри до повного першого сезону (12 серій)
Субтитри до другого сезону (поки що 5 серій)

Ріццолі та Айлс / Rizzoli & Isles, серіал (2010)
Кримінальний серіал про двох жінок - детектива поліції та судмедексперта, що разом розкривають заплутані злочини.

Субтитри до першого сезону (9 серій)
Субтитри до другого сезону (15 серій)
Субтитри до третього сезону (9 серій)

Longmire, серіал (2012)
Після смерті дружини шериф повертається до роботи, щоб з допомогою доньки та помічника розлідувати злочини, котрі трапились на його території. Та виявляється, помічник не проти зайняти місце шерифа...

Субтитри до першого сезону (10 серій)

Таємні справи / Covert Affairs, серіал (2010)
На новій роботі завжди нелегко - особливо, якщо тобі належить працювати в ЦРУ. Енні Уолкер (Пайпер Перабо) побіжно говорить на шести мовах, об'їздила весь світ і є найкращою ученицею в школі агентів ЦРУ. Але це все-одно не дає жодного пояснення, чому за місяць до закінчення навчання, її раптово запрошують до головного офісу ЦРУ і пропонують роботу агента. Також для неї залишається невідомим, що в її минулому є щось або хтось, дуже зацікавлений в її начальством. Еггі Андерсон (Крістофер Горам), Техексперт, що втратив зір на одному із завдань, стає для Енні провідником і вірним помічником у величезному світі інтриг, небезпеки і бюрократії.

Субтитри до першого сезону (11 серій)
Субтитри до другого сезону (16 серій)
Субтитри до третього сезону (10 серій)

Виправдана жорстокість / Necessary Roughness, серіал (2011)
Розведена жінка-терапевт, щоб якось звести кінці з кінцями, влаштовується лікарем у футбольну команду. Її кар'єра йде вгору, коли все більше знаменитостей прагнуть її опіки. Але нелегко балансувати між роботою та особистим життям, будучи матір'ю-одиначкою...

Субтитри до першого сезону (12 серій)
Субтитри до другого сезону (9 серій)
Yuriksat 
Новенький


З нами з: 11.09.09
Востаннє: 29.12.16
Повідомлень: 10

2012-10-27 19:28  
Слава Україні!

Перекладаю субтитрами серіали, наразі маю майже весь 5-й, та половину 4-го сезону Противаги (Leverage).

Юра
AlanAlan 
Почесний гуртомівець


З нами з: 29.06.08
Востаннє: 06.02.16
Повідомлень: 1377

2012-12-07 10:14  
Паранорман / ParaNorman (2012)
Постер / трейлер




Жанр: жахи, комедія, анімація
Країна: США



Режисер: Кріс Батлер, Сем Фелл
Актори: Коді Сміт-МакФі, Анна Кендрік, Леслі Ман, Джон Гудмен, Крістофер Мінц-Плассе, Кейсі Афлек, Джодель Ферланд, Бернард Хілл, Джеремі Шеда, Джефф Гарлін

Сюжет: Норман, Паранорман. Єдина надія напівсонного містечка в боротьбі з полчищами нечисті. Його зброя - супер-мега-дар: вміння спілкуватися з примарами. Втім, мерці - не головна небезпека, куди гірше - дурні дорослі з дробовиками.

Переклад: субтитри. Аматорський переклад з англійської мови.
Кажуть, що ліцензійної версії до цього мультфільму не буде.

Завантажити субтитри

Завантажити відео можна з багатьох ресурсів, - наприклад з ЕКСу, чи звідси: torrentz.ph/searchN?f=paranorman+2012
AlanAlan 
Почесний гуртомівець


З нами з: 29.06.08
Востаннє: 06.02.16
Повідомлень: 1377

2013-02-21 22:59  
Ружа / Róża (2011) Pol | sub Ukr

Сюжет: 1945 рік, кордон Польщі та Німеччини. Люди намагаються вижити в непрості повоєнні роки. Приходить нова влада "освободітєлєй", і проявляє дива гуманізму, чоловіколюбства та високих моральних якостей.

Нмсд, стрічку варто переглянути до дня "защітніка отєчєства".

Рейтинг IMDB 7.3 http://www.imdb.com/title/tt2043979

Субтитри http://www.opensubtitles.org/en/subtitles/4824439/roza-uk

thepiratebay.se/torrent/7675067/Roza_2011_Wojciech_Smarzewski_720p
Трейлер
lpershyi 
Попереджень: 2
Попереджень: 2 


З нами з: 04.01.11
Востаннє: 27.12.16
Повідомлень: 2622

2013-02-23 15:38  
AlanAlan написано:
Ружа / Róża (2011) Pol | sub Ukr
я би взяв, але посилання на українські титри не існує.
lpershyi 
Попереджень: 2
Попереджень: 2 


З нами з: 04.01.11
Востаннє: 27.12.16
Повідомлень: 2622

2013-02-23 23:28  
AlanAlan написано:
Ружа / Róża (2011) Pol | sub Ukr
зроблено; реліз тут: http://toloka.to/t44340
lpershyi 
Попереджень: 2
Попереджень: 2 


З нами з: 04.01.11
Востаннє: 27.12.16
Повідомлень: 2622

2013-03-04 02:23  
Кінопобачення / Date movie (2006)

хтось встиг викачати звук до комедії "Кінопобачення / Date movie (2006)"?
Тут http://wiki.hurtom.com/index.php?title=%D0%93%D0%BE%D1%82%D0%BE%D0%B2%D1%96_%D1%84%D1%96%D0%BB%D1%8C%D0%BC%D0%B8&diff=9073&oldid=991 неможливо викачати!


Жанр: комедія, романтика
Країна: США

Сюжет: Юлія Джонс є потворна і жирна. Вона боїться, що ніколи не одружиться та залишиться сама й стара в оточенні купи кішок. Але вважає, що любов сліпа і не втрачає надію, що одного разу зустріне лицаря, який здобуде її серце. Юлія працює в грецькому ресторані батьків. Її батько жидівський негр, мати індійка а сестра японка. Всі наполегливо вимагають, щоб Юля вдалася... Рейтинг явно занижений.
Technomate 
Відео Гуртом - запис з ТБ
Відео Гуртом - запис з ТБ


З нами з: 21.01.11
Востаннє: 16.01.17
Повідомлень: 322

2013-03-05 17:35  
lpershyi написано:

Кінопобачення / Date movie (2006)

хтось встиг викачати звук до комедії "Кінопобачення / Date movie (2006)"?


На жаль, в мене вже не залишилося цього запису.
Але, наскільки пригадую, то записав тоді цей фільм не я один.
Можливо хтось відгукнеться.

UPD

Оновив посилання, тільки там запис не до кінця, не вистачає кілька хвилин.
lpershyi 
Попереджень: 2
Попереджень: 2 


З нами з: 04.01.11
Востаннє: 27.12.16
Повідомлень: 2622

2013-03-19 23:08  
lpershyi написано:
Кінопобачення / Date movie (2006)
реліз зроблено, дякую користувачу Technomate за український сирець!
AlanAlan 
Почесний гуртомівець


З нами з: 29.06.08
Востаннє: 06.02.16
Повідомлень: 1377

2016-02-03 19:25  
Софія Андрухович, "Фелікс Австрія" (Книга року BBC-2014), аудіокнига (640 МБ).

Сюжет:
Станіславів кінця ХІХ – початку ХХ століття. Звичайне місто на кресах «щасливої Австрії», в якому живуть, страждають, нероздільно закохуються, захоплюються наукою і шарлатанськими виступами всесвітньо знаних ілюзіоністів, розважаються на балах і карнавалах, ходять на шпацер і ховають таємниці у різьблених комодах. І на тлі епохи, яка для нащадків щораз більше обростатиме міфами про ідилічне життя, — долі двох жінок, що переплелися так тісно, як стовбури дерев – у нерозривному зв’язку, який не дає ні жити, ні дихати, ні залишитися, ні піти.

Мета авторів цього проекту - зібрати кошти для госпіталів та лікарень, в яких перебувають на лікуванні бійці АТО, наші герої. На отримані за рахунок благодійності кошти буде придбано 300 mp3-плейерів. На них ми запишемо нашу аудіовиставу, щоб дати можливість тим, хто зараз не може читати, бодай на деякий час відволіктися від хвороби. На цьому сайті ви може прослухати або завантажити аудіоверсію книги БЕЗКОШТОВНО, адже благодійні внески - суто добровільні. Дякуємо!

-------------
Від себе:
1. посилання на ресурс не так для релізу, як для того, щоб бажаючі допомогли бійцям АТО.
2. аудіокнижка дуже якісна, з приємною фоновою музикою, професійно озвучена. Одним словом, вартує тих 50 грн. (рекомендована сума пожертви).
3. якби хтось і справді надумав релізити - після розпакування архіватор видає помилку, але всі файли розпаковуються нормально. Це не помилка, а глюк.
lpershyi 
Попереджень: 2
Попереджень: 2 


З нами з: 04.01.11
Востаннє: 27.12.16
Повідомлень: 2622

2016-02-05 04:48  
AlanAlan написано:
3. якби хтось і справді надумав релізити
хотів релізити, але вже зроблено активними людьми...
Читати текст можна тут: Андрухович Софія: Фелікс Австрія (2015) [fb2, epub]
Слухати текст можна тут: Андрухович Софія. Фелікс Австрія (2015) [mp3]
AlanAlan 
Почесний гуртомівець


З нами з: 29.06.08
Востаннє: 06.02.16
Повідомлень: 1377

2016-02-06 10:29  
гм, а я ж скористався пошуком перш ніж писати тут...
Ваш часовий пояс: GMT + 2 Години

Нова тема   Відповісти Сторінка:   попередня  1, 2, 3