Завантажити та скачати торренти українською


Національний камерний ансамбль "Київські солісти" - From Romantic Times (2008) [FLAC] | Classical

Нові коментарі

Нова тема   Відповісти
Останній раз роздавалося Myfordownloads (2016-10-09)
Автор Повідомлення
Lev 
VIP


З нами з: 14.10.09
Востаннє: 28.11.16
Повідомлень: 1819

2010-11-07 09:25  
Національний камерний ансамбль "Київські солісти" - From Romantic Times (2008) [FLAC] | Classical



Стиль: Classical
Країна, місто: Україна, Київ
Сайти: Офіційний сайт
Видавець: "Київські Солісти"
Виконавці:
Національний камерний ансамбль "Київські солісти"

солістка Мирослава Которович - скрипка
диригент Богодар Которович

ідея та продюсування - Мирослава Которович

Пісні:
    трекліст + музиканти
    Edvard Grieg
    "From Holberg's Time" Suite for strings, op.40 (1884)

    01. Praeludium (02:48)
    02. Sarabande (03:52)
    03. Gavotte (03:36)
    04. Air (05:56)
    05. Rigaudon (04:39)

    Солісти : Мирослава Которович - скрипка, О.Лагоша - альт, Ю.Погорецький - віолончель

    Jean Sibelius
    "Rakastava" Suite for strings and percussion, op.14 (1911)

    06. The Lover (04:10)
    07. The Way of the Beloved (01:47)
    08. Goodnight!...Farewell !" (05:30)

    Солісти : Мирослава Которович - скрипка, Ю.Погорецький - віолончель, Д.Ульянов - перкусія

    Felix Mendelssohn Bartholdy
    Octet in E flat major, op.20 (1825)

    09. Allegro moderato (13:07)
    10. Andante (08:14)
    11. Scherzo (04:38)
    12. Presto (06:32)

    Мирослава Которович - скрипка, С.Топоренко - скрипка, М.Білич - скрипка, Т.Яропуд - скрипка, О.Лагоша - альт, О.Дарбінь - альт, О.Ікаєва - віолончель, М.Бабич - віолончель
    log
    Exact Audio Copy V0.99 prebeta 5 from 4. May 2009

    EAC extraction logfile from 2. November 2010, 21:26

    Київські солісти / From Romantic Times

    Used drive : TEAC CD-W540E Adapter: 1 ID: 0

    Read mode : Secure
    Utilize accurate stream : Yes
    Defeat audio cache : Yes
    Make use of C2 pointers : No

    Read offset correction : 686
    Overread into Lead-In and Lead-Out : No
    Fill up missing offset samples with silence : Yes
    Delete leading and trailing silent blocks : No
    Null samples used in CRC calculations : Yes
    Used interface : Installed external ASPI interface
    Gap handling : Not detected, thus appended to previous track

    Used output format : Internal WAV Routines
    Sample format : 44.100 Hz; 16 Bit; Stereo

    TOC of the extracted CD

    Track | Start | Length | Start sector | End sector
    ---------------------------------------------------------
    1 | 0:00.00 | 2:48.56 | 0 | 12655
    2 | 2:48.56 | 3:52.05 | 12656 | 30060
    3 | 6:40.61 | 3:36.44 | 30061 | 46304
    4 | 10:17.30 | 5:56.57 | 46305 | 73061
    5 | 16:14.12 | 4:39.72 | 73062 | 94058
    6 | 20:54.09 | 4:10.71 | 94059 | 112879
    7 | 25:05.05 | 1:47.17 | 112880 | 120921
    8 | 26:52.22 | 5:30.25 | 120922 | 145696
    9 | 32:22.47 | 13:07.68 | 145697 | 204789
    10 | 45:30.40 | 8:14.33 | 204790 | 241872
    11 | 53:44.73 | 4:38.60 | 241873 | 262782
    12 | 58:23.58 | 6:32.51 | 262783 | 292233

    Track 1

    Filename D:\Київські солісти - З романтичних часів [2008]\Track01.wav

    Peak level 96.9 %
    Track quality 100.0 %
    Test CRC 89649BD4
    Copy CRC 89649BD4
    Track not present in AccurateRip database
    Copy OK

    Track 2

    Filename D:\Київські солісти - З романтичних часів [2008]\Track02.wav

    Peak level 97.5 %
    Track quality 100.0 %
    Test CRC BD7B50B9
    Copy CRC BD7B50B9
    Track not present in AccurateRip database
    Copy OK

    Track 3

    Filename D:\Київські солісти - З романтичних часів [2008]\Track03.wav

    Peak level 97.7 %
    Track quality 100.0 %
    Test CRC 055AABF2
    Copy CRC 055AABF2
    Track not present in AccurateRip database
    Copy OK

    Track 4

    Filename D:\Київські солісти - З романтичних часів [2008]\Track04.wav

    Peak level 97.7 %
    Track quality 100.0 %
    Test CRC A9035CB1
    Copy CRC A9035CB1
    Track not present in AccurateRip database
    Copy OK

    Track 5

    Filename D:\Київські солісти - З романтичних часів [2008]\Track05.wav

    Peak level 97.1 %
    Track quality 100.0 %
    Test CRC F327E4CE
    Copy CRC F327E4CE
    Track not present in AccurateRip database
    Copy OK

    Track 6

    Filename D:\Київські солісти - З романтичних часів [2008]\Track06.wav

    Peak level 93.0 %
    Track quality 100.0 %
    Test CRC 0383592A
    Copy CRC 0383592A
    Track not present in AccurateRip database
    Copy OK

    Track 7

    Filename D:\Київські солісти - З романтичних часів [2008]\Track07.wav

    Peak level 79.5 %
    Track quality 99.9 %
    Test CRC FEC1BA24
    Copy CRC FEC1BA24
    Track not present in AccurateRip database
    Copy OK

    Track 8

    Filename D:\Київські солісти - З романтичних часів [2008]\Track08.wav

    Peak level 93.0 %
    Track quality 100.0 %
    Test CRC E99DF67E
    Copy CRC E99DF67E
    Track not present in AccurateRip database
    Copy OK

    Track 9

    Filename D:\Київські солісти - З романтичних часів [2008]\Track09.wav

    Peak level 97.7 %
    Track quality 100.0 %
    Test CRC 27FED421
    Copy CRC 27FED421
    Track not present in AccurateRip database
    Copy OK

    Track 10

    Filename D:\Київські солісти - З романтичних часів [2008]\Track10.wav

    Peak level 97.7 %
    Track quality 99.9 %
    Test CRC F70BFCBE
    Copy CRC F70BFCBE
    Track not present in AccurateRip database
    Copy OK

    Track 11

    Filename D:\Київські солісти - З романтичних часів [2008]\Track11.wav

    Peak level 69.9 %
    Track quality 100.0 %
    Test CRC C903B6E5
    Copy CRC C903B6E5
    Track not present in AccurateRip database
    Copy OK

    Track 12

    Filename D:\Київські солісти - З романтичних часів [2008]\Track12.wav

    Peak level 97.7 %
    Track quality 100.0 %
    Test CRC 6DEEE1D2
    Copy CRC 6DEEE1D2
    Track not present in AccurateRip database
    Copy OK

    None of the tracks are present in the AccurateRip database

    No errors occurred

    End of status report

Тривалість: 01:04:56
Мова: інструментальні композиції
Аудіо-кодек: FLAC
Бітрейт: 613-721 кб/с
Джерело: власний диск > ріп EAC
Додаткова інформація:
замовити диск в Україні та інших країнах
http://www.nashformat.com.ua/classic-music/product-1798
Задум об’єднати в одному альбомі "From romantic times" ("З романтичних часів") твори Едварда Ґріґа, Яна Сібеліуса та Фелікса Мендельсона далеко не випадковий. Норвежець Ґріґ та фін Сібеліус – композитори-основоположники скандинавської романтичної школи. Водночас гармонійно врівноважені між собою сюїта "За часів Хольберґа" норвезького автора та Октет мі-бемоль мажор Мендельсона нерозривні з класичними традиціями. Усі три композитори – Ґріґ, Сібеліус і Мендельсон чудово володіли мистецтвом оркестрування, тому дуже часто своїй хоровій музиці, а також камерно-інструментальним творам надавали оркестрового звучання. Саме до таких зразків камерної музики належать репрезентовані на диску твори. Отже, дебютний альбом із серії "Kyiv Soloists Play" ("Грають Київські солісти"), в певному сенсі, можна назвати своєрідною антологією оркестрової транскрипції.

(з супровідної статті Романа Юсипея для буклету альбому)




Якщо Ви справді бажаєте підтримати українське - після прослуховування, якщо музика вам сподобалась, придбайте ліцензійний диск. Підтримаймо вітчизняних виконавців!


Срібний реліз (на рейтинг впливає 50% завантаженого)
 Трекер:    Зареєстрований   

Завантажити / скачати українську музику



відео для новачків



 Зареєстрований:   2010-11-07 09:25
 Розмір:   310 MB 
 Оцінка музики:   10/10 (Голосів: 10)
   
Tarasyk 
Відео Гуртом - фільмокрай
Відео Гуртом - фільмокрай


З нами з: 26.08.09
Востаннє: 28.11.16
Повідомлень: 5972

2010-11-07 09:34  
Lev, а УМКА пише
Цитата:
Видавець: Мельничук В.В., СПД


Іще, додай, будь ласка, в додаткову інформацію:
Цитата:
Задум об’єднати в одному альбомі "From romantic times" ("З романтичних часів") твори Едварда Ґріґа, Яна Сібеліуса та Фелікса Мендельсона далеко не випадковий. Норвежець Ґріґ та фін Сібеліус – композитори-основоположники скандинавської романтичної школи. Водночас гармонійно врівноважені між собою сюїта "За часів Хольберґа" норвезького автора та Октет мі-бемоль мажор Мендельсона нерозривні з класичними традиціями. Усі три композитори – Ґріґ, Сібеліус і Мендельсон чудово володіли мистецтвом оркестрування, тому дуже часто своїй хоровій музиці, а також камерно-інструментальним творам надавали оркестрового звучання. Саме до таких зразків камерної музики належать репрезентовані на диску твори. Отже, дебютний альбом із серії "Kyiv Soloists Play" ("Грають Київські солісти"), в певному сенсі, можна назвати своєрідною антологією оркестрової транскрипції.

(процитовано з поліграфії до видання)

Lev 
VIP


З нами з: 14.10.09
Востаннє: 28.11.16
Повідомлень: 1819

2010-11-07 09:39  
Tarasyk написано:

Lev, а УМКА пише
Цитата:
Видавець: Мельничук В.В., СПД


найцікавіше, що на коробці з диском зазначено:

CD-print: Melnichuk V.V.

тобто це означає, що в цьому разі Мельничук - не лейбл, а наймана контора для розмноження Happy

інфу зара додам, дякую, було впадло набирати з буклету Happy

jinotot 
Почесний оцифрувальник літератури


З нами з: 28.01.09
Востаннє: 16.11.16
Повідомлень: 3235

2010-11-07 14:17  
Шось зупинилось на 20 відсотках і далі не йде Sad (1) А хотілося б до вечора стягнути... Rolleyes (1)
Lev 
VIP


З нами з: 14.10.09
Востаннє: 28.11.16
Повідомлень: 1819

2010-11-08 11:14  
jinotot написано:
Шось зупинилось на 20 відсотках і далі не йде А хотілося б до вечора стягнути...


не знаю, шо за діла...
качнув?

jinotot 
Почесний оцифрувальник літератури


З нами з: 28.01.09
Востаннє: 16.11.16
Повідомлень: 3235

2010-11-13 14:23  
До речі, на Толоці є іще один диск у виконанні цього ансамблю Wink (2)
Державний камерний ансамбль "Київські солісти" - Євген Станкович. Live in Kyiv (2008) [APE]

Alien8 
Частий відвідувач


З нами з: 12.07.10
Востаннє: 18.10.16
Повідомлень: 46

2012-01-06 11:44  
А можна трішки збільшити швидкість роздачі, а то я за 12 годин скачав 5Mb

Додано через 2 години 2 хвилини 51 секунду:

Дякую, скачав.

Ваш часовий пояс: GMT + 2 Години

Нова тема   Відповісти