Завантажити та скачати торренти українською


Говерла - Хуртовина (2010) [FLAC] | Pagan Metal

Нові коментарі

Нова тема   Відповісти
Автор Повідомлення
Anonymous 







2010-10-31 15:57  
Говерла - Хуртовина (2010) [FLAC] | Pagan Metal


Стиль: Pagan Metal
Країна, місто: Україна, Львів, Трускавець
Сайти:

Видавець: Wroth Emitter
Виконавці:
Яромисл – гітара, бек-вокал
Судімір – клавіші, драм-машина
Вовковлад - вокал, гітара
Гуцул - свірель
Спеціальний гість:
Руен (PAGANLAND) - клавіші (Пам'яті Квортона)
Пісні:
    1. Обряд
    2. Гімн Стрибогу
    3. Хуртовина
    4. Пам'яті Квортона
    5. У Передчутті Неминучих Подій
    6. Правосуддя
    7. Шлях В Потойбіччя
    8. Тризна

Тривалість: 00:40:55
Мова: українська
Аудіо-кодек: MP3
Бітрейт: 957 кб/с
Джерело: Інший трекер
Додаткова інформація:
Перед цінителями стилю pagan metal дебютний альбом групи ГОВЕРЛА. Колектив був створений в 2006 році в Прикарпатті. Дана робота була записана в 2008 році у Львові на студії Rox, якраз під час формування власного стилю і специфічного звучання, і тому не можна не відзначити, що матеріал досить різноманітний, і в ньому присутні всі відтінки даного жанру, починаючи з інструментального інтро, закінчуючи блековими рифами і акустичної баладою. Тексти пройняті гімнами слов'янським богам, любов'ю до батьківщини і шануванням предків. Під час прослуховування мимоволі спливають образи Карпатських гір і незайманих людством незайманих лісів, занурених у пам'ять про минулі битви.
log
Exact Audio Copy V0.99 prebeta 5 from 4. May 2009
EAC extraction logfile from 1. September 2010, 8:47
Goverla / Хуртовина
Used drive : _NEC DVD_RW ND-3550A Adapter: 1 ID: 1
Read mode : Secure
Utilize accurate stream : Yes
Defeat audio cache : Yes
Make use of C2 pointers : No
Read offset correction : 48
Overread into Lead-In and Lead-Out : No
Fill up missing offset samples with silence : Yes
Delete leading and trailing silent blocks : No
Null samples used in CRC calculations : Yes
Used interface : Installed external ASPI interface
Used output format : Internal WAV Routines
Sample format : 44.100 Hz; 16 Bit; Stereo
TOC of the extracted CD
Track | Start | Length | Start sector | End sector
---------------------------------------------------------
1 | 0:00.00 | 3:15.44 | 0 | 14668
2 | 3:15.44 | 4:37.42 | 14669 | 35485
3 | 7:53.11 | 4:59.52 | 35486 | 57962
4 | 12:52.63 | 7:21.36 | 57963 | 91073
5 | 20:14.24 | 5:02.31 | 91074 | 113754
6 | 25:16.55 | 4:35.13 | 113755 | 134392
7 | 29:51.68 | 6:45.62 | 134393 | 164829
8 | 36:37.55 | 4:18.04 | 164830 | 184183
Range status and errors
Selected range
Filename F:\Раздача\2010-Goverla - Хуртовина\Goverla - Хуртовина.wav
Peak level 99.0 %
Range quality 100.0 %
Test CRC 33966E8A
Copy CRC 33966E8A
Copy OK
No errors occurred
End of status report
Також на Толоці:
Говерла - Хуртовина (2010) [MP3]


Якщо Ви справді бажаєте підтримати українське - після прослуховування, якщо музика вам сподобалась, придбайте ліцензійний диск. Підтримаймо вітчизняних виконавців!


Срібний реліз (на рейтинг впливає 50% завантаженого)
 Трекер:    Зареєстрований   

Завантажити / скачати українську музику



відео для новачків



 Зареєстрований:   2010-10-31 15:58
 Розмір:   345 MB 
 Оцінка музики:   8.8/10 (Голосів: 13)
   
bot 
робот


З нами з: 30.09.07
Востаннє: 26.05.05
Повідомлень: 15989

2010-10-31 15:57  
Tarasyk 
Відео Гуртом - фільмокрай
Відео Гуртом - фільмокрай


З нами з: 26.08.09
Востаннє: 28.11.16
Повідомлень: 5972

2010-10-31 16:18  
iwan wan, так а чому і обкладинку звідти не взяли?
Код:
[img]http://hurtom.com/torrents/forum/photos/10062318064136668_f0_0.jpg[/img]


Додано через 7 хвилин 7 секунд:

Тим більше в роздачі є скани - можна взяти й звідти обкладинку...

Anonymous 







2010-10-31 16:31  
Вже взяв
Lev 
VIP


З нами з: 14.10.09
Востаннє: 05.12.16
Повідомлень: 1819

2010-10-31 17:52  
а тривалість треків?
Tarasyk 
Відео Гуртом - фільмокрай
Відео Гуртом - фільмокрай


З нами з: 26.08.09
Востаннє: 28.11.16
Повідомлень: 5972

2010-10-31 18:13  
Lev,
iwan wan написано:
Тривалість: 00:40:55

чи ти про щось інше?

Lev 
VIP


З нами з: 14.10.09
Востаннє: 05.12.16
Повідомлень: 1819

2010-11-01 01:01  
Tarasyk написано:
чи ти про щось інше?


про тривалість кожного окремого треку.

jinotot 
Почесний оцифрувальник літератури


З нами з: 28.01.09
Востаннє: 04.12.16
Повідомлень: 3235

2010-11-01 18:06  
Lev, в правилах такого немає. Наразі загальної тривалості в описі достатньо. А тобі навіщо? В тому є якийсь практичний сенс?
Skiff 
музика
музика


З нами з: 12.11.07
Востаннє: 04.12.16
Повідомлень: 3051

2010-11-02 19:48  
iwan wan написано:

1 | 0:00.00 | 3:15.44 | 0 | 14668

2 | 3:15.44 | 4:37.42 | 14669 | 35485

3 | 7:53.11 | 4:59.52 | 35486 | 57962

4 | 12:52.63 | 7:21.36 | 57963 | 91073

5 | 20:14.24 | 5:02.31 | 91074 | 113754

6 | 25:16.55 | 4:35.13 | 113755 | 134392

7 | 29:51.68 | 6:45.62 | 134393 | 164829

8 | 36:37.55 | 4:18.04 | 164830 | 184183

Forestelf 
VIP


З нами з: 06.02.09
Востаннє: 21.01.16
Повідомлень: 894

2010-11-04 00:08  
Свого часу пропустив гурт повз вуха. А виявляється гарна музика - те що любиш!
Oleksa9 
Поважний учасник


З нами з: 17.05.12
Востаннє: 05.12.16
Повідомлень: 225

2012-06-01 21:45  
Трускавець? Цікаво! Ще б хто роздав.....
Ваш часовий пояс: GMT + 2 Години

Нова тема   Відповісти