Завантажити та скачати торренти українською


Ансамбль "Vicorda" - Твори сучасних українських композиторів (2007) [FLAC] | Classic

Нові коментарі

Нова тема   Відповісти
Автор Повідомлення
ssTAss 
Модератор музики


З нами з: 05.07.08
Востаннє: 09.12.16
Повідомлень: 10949

2010-10-27 16:20  
Ансамбль "Vicorda" - Твори сучасних українських композиторів (2007) [FLAC] | Classic



Стиль: Avantgarde, Neo, Modern, Classic
Країна: Україна
Видавець: автор
Виконавці:
Марія Берлад - скрипка
Марко Вербовецький - скрипка
Галина Бердоус - скрипка
Лідія Коваль - скрипка
Анна Томасишин - фортепіано
Художній керівник та диригент - Зіновія Ядловська

Пісні:
    1. Євген Станкович. "Якось в гостях у великого Вівальді" з камерної симфонії №7
    2. Євген Станкович. "Гірська легенда" для альта і фортепіано
    3. Анна Гаврилець. "Sottovoce", версія для ансамблю скрипалів
    Анна Гаврилець. "Екслібриси", друга версія для ансамблю скрипалів:
    4. частина 1
    5. частина 2
    6. частина 3
    7. частина 4
    8. Анна Гаврилець. "За межею тіла і душі" для двох скрипок
    Богдана Фроляк. "Partita-Meditation" для двох скрипок:
    9. частина 1
    10. частина 2
    11. частина 3
    12. частина 4
    13. частина 5
log
Exact Audio Copy V0.99 prebeta 4 from 23. January 2008

Звіт EAC про видобування, котре виконане 20. квітня 2010, 9:46

Vicorda / Твори сучасних українських композиторів

Дисковод: HL-DT-STDVD-ROM GDR-H30N Adapter: 0 ID: 0

Режим читання : Точний
Використати точний потік : Так
Вимкнути аудіо кеш : Так
Застосувати мітки C2 : Ні

Корекція зміщення при читанні : 6
Екстрачитання областей Lead-in і Lead-out : Ні
Заповнення пропущених семплів тишею : Так
Видалення блоків з тишею на початку і кінці : Ні
При вирахуванні CRC використовувались нульові семпли : Так
Використаний інтерфейс : Встановлений зовнішній ASPI-інтерфейс
Поводження з проміжками : Приєднано до попереднього трека

Застосований вихідний формат : Кодер Користувача
Обраний бітрейт : 128 kBit/s
Якість : Високий
Додати тег ID3 : Ні
Компресор командного рядка : C:\Program Files\FLAC\flac.exe
Додаткові параметри командного рядка : -8 -V -T "ARTIST=%a" -T "TITLE=%t" -T "ALBUM=%g" -T "DATE=%y" -T "TRACKNUMBER=%n" -T "GENRE=%m" -T "COMMENT=EAC FLAC -8" %s

TOC видобутого CD

Трек | Старт | Довжина | Початковий сектор | Кінцевий сектор
------------------------------------------------------------------
1 | 0:00.00 | 5:32.01 | 0 | 24900
2 | 5:32.01 | 5:36.37 | 24901 | 50137
3 | 11:08.38 | 4:06.24 | 50138 | 68611
4 | 15:14.62 | 2:46.54 | 68612 | 81115
5 | 18:01.41 | 1:28.14 | 81116 | 87729
6 | 19:29.55 | 3:15.38 | 87730 | 102392
7 | 22:45.18 | 1:08.26 | 102393 | 107518
8 | 23:53.44 | 9:49.19 | 107519 | 151712
9 | 33:42.63 | 3:27.05 | 151713 | 167242
10 | 37:09.68 | 4:55.13 | 167243 | 189380
11 | 42:05.06 | 2:26.70 | 189381 | 200400
12 | 44:32.01 | 4:00.62 | 200401 | 218462
13 | 48:32.63 | 1:48.15 | 218463 | 226577

Трек 1

Ім'я файлу J:\Vicorda\01. Vicorda - Станкович - Якось в гостях у вкликого Вівальді з камерної симфонії №7.wav

Довжина проміжка 0:00:02.00

Піковий рівень 96.6 %
Якість трека 100.0 %
CRC тесту 206F6284
CRC копії 206F6284
Копіювання... OK

Трек 2

Ім'я файлу J:\Vicorda\02. Vicorda - Станкович - Гірська легенда для альта і фортепіано.wav

Піковий рівень 96.6 %
Якість трека 100.0 %
CRC тесту 9CAFCF96
CRC копії 9CAFCF96
Копіювання... OK

Трек 3

Ім'я файлу J:\Vicorda\03. Vicorda - Гаврилець - Sottovoce версія для ансамблю скрипалів.wav

Піковий рівень 72.3 %
Якість трека 100.0 %
CRC тесту 18FC63B4
CRC копії 18FC63B4
Копіювання... OK

Трек 4

Ім'я файлу J:\Vicorda\04. Vicorda - Гаврилець - Екслібриси друга версія для ансамблю скрипалів ч.1.wav

Піковий рівень 96.6 %
Якість трека 99.9 %
CRC тесту C0BCE16C
CRC копії C0BCE16C
Копіювання... OK

Трек 5

Ім'я файлу J:\Vicorda\05. Vicorda - ч.2.wav

Піковий рівень 96.6 %
Якість трека 100.0 %
CRC тесту 290E586C
CRC копії 290E586C
Копіювання... OK

Трек 6

Ім'я файлу J:\Vicorda\06. Vicorda - ч.3.wav

Піковий рівень 96.5 %
Якість трека 100.0 %
CRC тесту C5C975EE
CRC копії C5C975EE
Копіювання... OK

Трек 7

Ім'я файлу J:\Vicorda\07. Vicorda - ч.4.wav

Піковий рівень 96.6 %
Якість трека 100.0 %
CRC тесту 260C4387
CRC копії 260C4387
Копіювання... OK

Трек 8

Ім'я файлу J:\Vicorda\08. Vicorda - Гаврилець - За межею тіла і душі для двох скрипок.wav

Піковий рівень 100.0 %
Якість трека 100.0 %
CRC тесту 4C25ADBA
CRC копії 4C25ADBA
Копіювання... OK

Трек 9

Ім'я файлу J:\Vicorda\09. Vicorda - Фроляк - Partita meditation для двох скрипок ч.1.wav

Піковий рівень 100.0 %
Якість трека 100.0 %
CRC тесту 70D9DCBA
CRC копії 70D9DCBA
Копіювання... OK

Трек 10

Ім'я файлу J:\Vicorda\10. Vicorda - ч.2.wav

Піковий рівень 20.4 %
Якість трека 99.9 %
CRC тесту 4F332F7D
CRC копії 4F332F7D
Копіювання... OK

Трек 11

Ім'я файлу J:\Vicorda\11. Vicorda - ч.3.wav

Піковий рівень 97.3 %
Якість трека 100.0 %
CRC тесту 1580F0DB
CRC копії 1580F0DB
Копіювання... OK

Трек 12

Ім'я файлу J:\Vicorda\12. Vicorda - ч.4.wav

Піковий рівень 27.5 %
Якість трека 100.0 %
CRC тесту 29078C06
CRC копії 29078C06
Копіювання... OK

Трек 13

Ім'я файлу J:\Vicorda\13. Vicorda - ч.5.wav

Піковий рівень 6.3 %
Якість трека 100.0 %
CRC тесту B95F83A5
CRC копії B95F83A5
Копіювання... OK

Помилки не траплялися

Кінець звіту
Тривалість: 00:50:21
Мова: без слів
Аудіо-кодек: FLAC
Бітрейт: 426- 742 кб/с
Джерело: рутрекер
Додаткова інформація:
Все-таки у зручні часи ми живемо, як не крути. Ми маємо безліч можливих шляхів для того, аби чути, бачити – знати. Ми можемо знати своїх сучасників в обличчя – а кількадесят років тому це було не так вже і реально. Нам достатньо зробити всього лише кілька рухів – і ми можемо почути музику, яку любимо, або якої не знаємо, або про можливість якої навіть і не здогадувались. Це не потребує великих зусиль, далеких і непевних мандрів, місяців, а то і років очікування, нині все є досяжним – легко. От, власне, ми і пропонуємо Вам – зазирнути в обличчя своїм сучасникам. Пізнати – і, можливо, прийняти. Ансамбль Vicorda утворився не так давно – та увійшли до нього далеко не новачки. Всі учасники – це молоді, але вже цілком сформовані професіонали, майстри-виконавці. Зрештою, Ви й самі легко в цьому переконаєтесь – бо представлені тут твори простими, легкими не назвеш, імена композиторів кажуть самі за себе. Твори не важкі для сприйняття, проте всіх їх об’єднує, здається, спільна риса – тонка, але трохи знервована краса. Все-таки більше краса, ніж знервована (на те ж натякають і невеличкі вірші до кожного твору – їх Ви знайдете у буклеті)... І для того, аби переконливо зіграти такий відтінок – таки потрібно добре знати свою справу. Що, власне, Vicorda з успіхом і демонструє.


Якщо Ви справді бажаєте підтримати українське - після прослуховування, якщо музика вам сподобалась,
придбайте ліцензійний диск.
Підтримаймо вітчизняних виконавців!


Срібний реліз (на рейтинг впливає 50% завантаженого)
 Трекер:    Зареєстрований   

Завантажити / скачати українську музику



відео для новачків



 Зареєстрований:   2010-10-27 16:20
 Розмір:   218 MB 
 Оцінка музики:   7.3/10 (Голосів: 10)
   
Ваш часовий пояс: GMT + 2 Години

Нова тема   Відповісти