Завантажити та скачати торренти українською


Er.J.Orchestra - The Unicorn (2004) [APE] | Jazz

Нові коментарі

Нова тема   Відповісти
Останній раз роздавалося Myfordownloads (2016-10-09)
Автор Повідомлення
ssTAss 
Модератор музики


З нами з: 05.07.08
Востаннє: 09.12.16
Повідомлень: 10948

2010-10-22 16:09  
Er.J.Orchestra - The Unicorn (2004) [APE] | Jazz



Стиль: Jazz
Країна, місто: Україна, Київ
Сайти: Офіційний сайт
Видавець: 44Records
Виконавці:
Олексій Александров - фортепіано, рекордери, перкусія
Віктор Крисько - скрипка, віола
Григорій Немировський - труба, флюгельгорн, мелофон, zink (середньовічний корнет), кларіно, мелодика, фортепіано, клавішні
Валерій Кошман - 12 стр. акустична гітара, Roland VG 8 guitar system
Андрій Чугуєвець - акустична гітара
Володимир Сороченко – бас-гітара
Олександр Береговський – вібрафон, перкусія, барабани, дарабука
Олег "Доктор" Кобцев – вокал, перкусія, барабани, уду, rainstick
Алекс Фантаєв - барабани
Аркадій Вихорєв - скляна гармоніка
Спеціальні гості

Arkady Shilkloper - waldborn, didjeridu
Narket Ramazanov - saxophone, flute
Andrei Pushkarev - vibraphone, marimba, kettledrums, glockenspiel
Konstantin Strelchenko - bayan
Alexei Kabanov - gusli, ntbab, dulcimer, filar, sanlur, sitar, ethnic fluts, china lo, china bells
Helena Sumarokova - cello
YongYa - koto
Max Gladetsky - acoustic bass
Chamber orchestra The Elfian Scale (Jurij Stepin, Maxim Bakeev, Aljena Nikitina, Helena Sumarokova)
Ethnic choir Shepberds
Пісні:
    1. Adular's Wandering
    2. The Unicorn
      a) Magic Woods
      b) Madrigal
      c) The Battle-hunt
      d) The Coming-home Pastoral
      e) Dance with the Unicorn

    3. Eljzao
    4. Where Do The Angels Go?..
log
Exact Audio Copy V0.99 prebeta 3 from 28. July 2007

Отчёт EAC об извлечении, выполненном 23. октября 2007, 19:41

Er. J. Orchestra / The Unicorn

Дисковод: PIONEER DVD-RW DVR-111D Adapter: 0 ID: 0

Режим чтения : Достоверность
Использование точного потока : Да
Отключение кэша аудио : Да
Использование указателей C2 : Нет

Коррекция смещения при чтении : 48
Способность читать области Lead-in и Lead-out : Нет
Заполнение пропущенных сэмплов тишиной : Да
Удаление блоков с тишиной в начале и конце : Нет
При вычислениях CRC использовались нулевые сэмплы : Да
Интерфейс : Установленный внешний ASPI-интерфейс

Выходной формат : Внутренние WAV-операции
Формат сэмплов : 44.100 Гц; 16 бит; стерео

TOC извлечённого CD

Трек | Старт | Длительность | Начальный сектор | Конечный сектор
---------------------------------------------------------------------
1 | 0:00.00 | 9:30.12 | 0 | 42761
2 | 9:30.12 | 6:07.02 | 42762 | 70288
3 | 15:37.14 | 2:29.42 | 70289 | 81505
4 | 18:06.56 | 4:24.39 | 81506 | 101344
5 | 22:31.20 | 6:01.11 | 101345 | 128430
6 | 28:32.31 | 8:01.59 | 128431 | 164564
7 | 36:34.15 | 14:56.43 | 164565 | 231807
8 | 51:30.58 | 6:50.29 | 231808 | 262586

Характеристики диапазона извлечения и сообщения об ошибках

Выбранный диапазон

Имя файла L:\Er. J. Orchestra - The Unicorn.wav

Пиковый уровень 99.8 %
Качество диапазона 100.0 %
CRC копии 1ECE96BA
Копирование... OK

Ошибок не произошло

Конец отчёта
Тривалість: 00:58:21
Мова: без слів
Аудіо-кодек: APE
Бітрейт: 807 кб/с
Джерело: рутрекер
Додаткова інформація:
про гурт
Er.J.Orchestra було засновано 1989 р. в Києві. Виконує переважно акустичну музику, побудовану на традиції слов'янського мелосу, євро-американської та східної музики. Відмовляючись від прямого цитування, група надає перевагу своїй індивідуальній або суб'єктивній концепції "музичного джерела" чистої автентичності.

В оригінальних творах очевидне сполучення народного, джазового й академіченого звучання. Крім того, твори характеризуються широким застосуванням ведучих інструментів, які часто міняють одне одного, створюючи особливе, оригінальне емоційне забарвлення та смислові напівтони. Іншими словами, крім загальної музичної ідеї, твори передають ідею окремо кожного інструменту, який "грає самого себе".
Більшість музичних критиків характеризують стиль і естетичну орієнтацію творів Er.J.Orchestra, як приналежний до напрямку WORLD MUSIC. Це, можливо, пояснює основне кредо гурту: музика без кордонів.

Назва Er.J.Orchestra має багату полісемію. Таким чином, воно навряд чи піддається якій-небудь однозначній трактовці.
Що таке "Er."? Одним з основних є епітет erotic, але, звісно, не у фізиологічному сенсі цього слова, а як свого роду культурологічний феномен нашої епохи, породженої ідеологією модерну.

Er.J.Orchestra видав три альбоми: "Gabrielius" (1999), "On the hill again" (2002), "The Unicorn" (2004).

Окрім концертної діяльності та виступів на джазових фестивалях, у біографії Er. J. Orchestra є й спільна творчість із Державним Дитячим музичним театром, головний балетмейстер якого, лауреат міжнародних конкурсів балетмейстерів, заслужений діяч мистецтв Росії Георгій Ковтун поставив хореографічну мініатюру "Сірінга" на музыку Er.J.Orchestra. В постановці приймали участь провідні артисти театру: Євгенія Костилева (Сірінга) та заслужений артист України Андрій Вдовиченко (Пан). Прем'єра спектаклю відбулася у червні 1993 року в Києві, у великому залі Національного театру опери та балету. Ця робота мала великий успіх у глядачів.

Однією з особливостей концертної діяльності Er.J.Orchestra є співіснування музичних образів з візуальними, пошук їхнього гармонійного поєднання. І це не випадково, оскільки людське вухо і око завжди "прагнули зустрічі" одне з одним у естетичному осягненні дійсності. З першого дня свого існування Er.J.Orchestra втілює цю концепцію разом з відомим художником і режисером Олександром Дірдовським.
У своїх фантастичних слайдах, працюючи з кількома експозиціями, він дуже вдало поєднує, здавалося б, непоєднувані речі й сутності. Це схоже на віднайдення безкінечних життєвих просторів у їхньому раптовому, миттєвому поєднанні, на впізнавання або розпізнання якоїсь "третьої реальності". Жоден з цих слайдів повторити неможливо, оскільки експозиції, які його складають, знімаються в різний час і в різних географічних місцинах. Сама можливість поєднати цю географічну відмінність (або "хронотоп") в одну єдину справжню мить перетворює і учасника творчого акту, і того, хто безпосередньо створює, і власне всю живу й неживу природу, яка є об'єктом творчості. Цінність результату визначається ще й тим, що велику роль тут відіграє Випадок, втілений буквально у всьому: в часі доби, у стані атмосфери, у русі руки з фотоапаратом, у настрої митця, в місці зйомки, в розташуванні предметів і багато в чому іншому - у всьому тому, що дуже важко врахувати або спланувати наперед.


Якщо Ви справді бажаєте підтримати українське - після прослуховування, якщо музика вам сподобалась,
придбайте ліцензійний диск.
Підтримаймо вітчизняних виконавців!


Срібний реліз (на рейтинг впливає 50% завантаженого)
 Трекер:    Зареєстрований   

Завантажити / скачати українську музику



відео для новачків



 Зареєстрований:   2010-10-22 16:09
 Розмір:   340 MB 
 Оцінка музики:   4.6/10 (Голосів: 5)
   
Skifstriy 
Частий відвідувач


З нами з: 13.12.09
Востаннє: 06.12.16
Повідомлень: 47

2010-12-04 16:56  
друзі, додайте ґазу.
6/10 мб залишилось

Ваш часовий пояс: GMT + 2 Години

Нова тема   Відповісти