Завантажити та скачати торренти українською


НеDіля - Fortissimo (2010) [FLAC] | Pop / Rock

Нові коментарі

Нова тема   Відповісти
Останній раз роздавалося sirkosiryj (2014-12-14)
Автор Повідомлення
a_av 
Новенький


З нами з: 05.04.10
Востаннє: 04.12.16
Повідомлень: 11

2010-10-19 19:16  
НеDіля - Fortissimo (2010) [FLAC] | Pop / Rock



Стиль: Pop, Rock
Країна, місто: Україна, Київ
Сайти: Офіційний сайт
Видавець: Moon Records
Виконавці:
У творчому процесі запису взяли участь:

-бас-гітара, символ постійних репетицій – Антон Бєлко;
-гітарний драйв, соло-гітара, акустична гітара, щира душа – Мішель Баньковський;
-ударні, перкусія, робота зі звуком, саундпродюсування – Ярослав Вільчік;
-акустична гітара, соло-гітара, гобой, клавіші, бек-вокали, людина мультиінструменталіст – Євдокім Решетько;
-вокал, бек- вокали, клавіші, музика та слова до усіх пісень – Едуард Приступа (Діля);
-незмінний концертний звукорежисер - Олександр Тинкевич.

Всі пісні були написані безпосередньо Едуардом, над аранжуванням та оригінальним звучанням працювали всім гуртом.

Запис і зведення зроблено на студії ФДР.
Пісні:

    01. Просто неба
    02. Гра
    03. Синя Ріка
    04. Рейк’явік
    05. Если Бы Я Был
    06. Формула Кохання Графа Каліостро
    07. Розгубив
    08. Чоловік І Жінка
    09. Бізне$$$ Леді
    10. Небокрай
    11. Туса
    12. Сент Екзюпері

Тривалість: 00:45:27
Мова: українська, російська (5)
Аудіо-кодек: FLAC
Бітрейт: lossless (901 - 1076 кб/с)
Джерело: Власний диск
Додаткова інформація:
Додаткова інформація

Третій студійний альбом відомих українских рок-ліриків! Новий альбом відрізняється від попередніх, в першу чергу, більш драйвовим і роковим звучанням. В новий альбом війшло 12 композицій.

Хотілося б зазначити цікавий факт щодо пісень у альбомі! Деякі композиції випадково були написані під впливом книжок, а саме:

Екзюпері – Сент Екзюпері “Маленький принц”,
Синя ріка – Ірвін Шоу “Хліб по водам”
Формула кохання графа Каліостро – Олексій Толстой “Граф Каліостро”
Если бы я был... – Артем Чех “Цього ви не знайдете в Яндексі”, Любко Дереш “Культ”
Едуард Приступа про альбом

"Нарешті ми завершили звукотворчій процес і дочекалися на випуск платівки, бо останній альбом “Трохи теплих слів” виходив аж о 2006-му році, але ця пауза не була затишною і безплідною. Як композитор і продюсер я спродюсував альбом-проект Росави “Колисанки – Нація починається з колиски”, спільно із Сашком Положинським (ТАРТАК) та Орестом Крисою (ТАТХАГАТА) ми записали і випустили музичний інтелектуально-психоделічний рок-проект “ПоНеДілОК - ТРИЧІ”, музиканти з гурту “НЕДІЛЯ” також взяли участь у багатьох музичних проектах. Окрім того ми проїхали з концертами майже всю рідну Україну. Взяли участь у багатьох благодійних акціях, заходах та концертах. І головне, ми довго і плідно відбирали матеріал до нової платівки. Шукали новий підхід, нове звучання, новий драйв, форму. Хотілося зробити щось кардинально нове. Сподіваємось, що це у нас вийшло...”
Звіт EAC

Exact Audio Copy V0.99 prebeta 5 from 4. May 2009

EAC extraction logfile from 22. October 2010, 21:53

НеDіля / Fortissimo

Used drive : _NEC DVD_RW ND-2510A Adapter: 1 ID: 0

Read mode : Secure
Utilize accurate stream : Yes
Defeat audio cache : Yes
Make use of C2 pointers : No

Read offset correction : 48
Overread into Lead-In and Lead-Out : No
Fill up missing offset samples with silence : Yes
Delete leading and trailing silent blocks : No
Null samples used in CRC calculations : Yes
Used interface : Native Win32 interface for Win NT & 2000
Gap handling : Appended to previous track

Used output format : User Defined Encoder
Selected bitrate : 128 kBit/s
Quality : High
Add ID3 tag : No
Command line compressor : C:\Program Files\FLAC\flac.exe
Additional command line options : -8 -V %s

TOC of the extracted CD

Track | Start | Length | Start sector | End sector
---------------------------------------------------------
1 | 0:00.00 | 4:26.61 | 0 | 20010
2 | 4:26.61 | 2:53.03 | 20011 | 32988
3 | 7:19.64 | 3:19.09 | 32989 | 47922
4 | 10:38.73 | 3:51.24 | 47923 | 65271
5 | 14:30.22 | 4:17.09 | 65272 | 84555
6 | 18:47.31 | 2:45.56 | 84556 | 96986
7 | 21:33.12 | 4:42.46 | 96987 | 118182
8 | 26:15.58 | 3:58.13 | 118183 | 136045
9 | 30:13.71 | 4:18.57 | 136046 | 155452
10 | 34:32.53 | 3:48.59 | 155453 | 172611
11 | 38:21.37 | 3:51.00 | 172612 | 189936
12 | 42:12.37 | 3:14.70 | 189937 | 204556

Track 1

Filename M:\CD\01 - Просто Неба.wav

Pre-gap length 0:00:02.00

Peak level 100.0 %
Track quality 100.0 %
Copy CRC 99D2098E
Copy OK

Track 2

Filename M:\CD\02 - Гра.wav

Peak level 100.0 %
Track quality 100.0 %
Copy CRC D2B748E5
Copy OK

Track 3

Filename M:\CD\03 - Синя Ріка.wav

Pre-gap length 0:00:02.00

Peak level 100.0 %
Track quality 100.0 %
Copy CRC DB264359
Copy OK

Track 4

Filename M:\CD\04 - Рейк'явік.wav

Peak level 100.0 %
Track quality 100.0 %
Copy CRC 4DDBBAA5
Copy OK

Track 5

Filename M:\CD\05 - Если Бы я Был.wav

Pre-gap length 0:00:02.00

Peak level 100.0 %
Track quality 100.0 %
Copy CRC 4BED24C3
Copy OK

Track 6

Filename M:\CD\06 - Формула Кохання Графа Каліостро.wav

Pre-gap length 0:00:02.00

Peak level 100.0 %
Track quality 100.0 %
Copy CRC 9A223BD3
Copy OK

Track 7

Filename M:\CD\07 - Розгубив.wav

Pre-gap length 0:00:02.00

Peak level 100.0 %
Track quality 100.0 %
Copy CRC 74D3F1D9
Copy OK

Track 8

Filename M:\CD\08 - Чоловік І Жінка.wav

Pre-gap length 0:00:02.00

Peak level 100.0 %
Track quality 100.0 %
Copy CRC 777B1A3A
Copy OK

Track 9

Filename M:\CD\09 - Бізне$$$ Леді.wav

Pre-gap length 0:00:02.00

Peak level 100.0 %
Track quality 100.0 %
Copy CRC FF874FC5
Copy OK

Track 10

Filename M:\CD\10 - Небокрай.wav

Pre-gap length 0:00:02.00

Peak level 100.0 %
Track quality 99.9 %
Copy CRC 274C4F2E
Copy OK

Track 11

Filename M:\CD\11 - Туса.wav

Peak level 100.0 %
Track quality 99.8 %
Copy CRC A93C549F
Copy OK

Track 12

Filename M:\CD\12 - Сент Екзюпері.wav

Pre-gap length 0:00:02.00

Peak level 100.0 %
Track quality 99.7 %
Copy CRC B96875E6
Copy OK

No errors occurred

End of status report


23.10.2010 Торрент змінено у зв'язку з некоректним попереднім ріпом. Прохання до всіх, хто вже завантажив матеріал, перезавантажити торрент.


Якщо Ви справді бажаєте підтримати українське - після прослуховування, якщо музика вам сподобалась, придбайте ліцензійний диск. Підтримаймо вітчизняних виконавців!




Срібний реліз (на рейтинг впливає 50% завантаженого)
 Трекер:    Зареєстрований   

Завантажити / скачати українську музику



відео для новачків



 Зареєстрований:   2010-10-23 12:06
 Розмір:   329 MB 
 Оцінка музики:   10/10 (Голосів: 3)
   
bot 
робот


З нами з: 30.09.07
Востаннє: 26.05.05
Повідомлень: 16055

2010-10-19 20:55  
Тему перенесено з Рок, Метал, Альтернатива, Панк, СКА до форуму Рок, Метал, Альтернатива, Панк, СКА

Причина перенесення: lossless
ssTAss

Lev 
VIP


З нами з: 14.10.09
Востаннє: 09.12.16
Повідомлень: 1819

2010-10-19 21:48  
a_av написано:
гобій


LOL

а шо, є хтось, хто слухає цю групу в лосі? )

Ваш часовий пояс: GMT + 2 Години

Нова тема   Відповісти